COVID-19 - Последняя информация о коронавирусе на сайте Минздрава




Торрент файл
скачать торрент магнет ссылка Добавлен: 22 янв 2019, 12:32
Размер: 2.43 ГБ
Сидеров: 0
Личеров: 0
Статус: (salma3)
Автор

СообщениеДобавлено: 22 янв 2019, 12:32 

Не в сети
Супермодератор
Аватара пользователя
Дата регистрации:
15 фев 2012, 16:44
Возраст: 30
Спасибо: 8262 / 2148
Сообщения: 96145
Год выпуска: 2018
Жанр: Фэнтези, драма, комедия
Режиссер: Терри Гиллиам

В ролях: Адам Драйвер, Джонатан Прайс, Стеллан Скарсгард, Ольга Куриленко, Жуана Рибейру, Оскар Хаенада, Джейсон Уоткинс, Серхи Лопес, Хорди Молья, Диого Андраде

О фильме:
Режиссер Тобиас Граммет, мучаясь в Испании над очередным рекламным шедевром, в поисках вдохновения отправился в деревню, где 10 лет назад снимал свой дипломный фильм — про Дон Кихота. И нашел там исполнителя главной роли — спятившего старого сапожника, уверовавшего, что он… и есть настоящий Рыцарь печального образа! Старик принял Тоби за своего верного оруженосца Санчо и насильно потащил в опасное путешествие, где реальность трансформируется в фантазию, а правду не отличить от вымысла.



Страна: Испания, Бельгия, Франция, Португалия, Великобритания
Продолжительность: 02:13:03
Перевод: Дублированный | iTunes

Файл
Качество: BDRip-AVC
Видео: 1024x428 (2.40:1), 24,000 fps, x264 ~1 784 kbps avg, 0.170 bit/pixel
Аудио1: 48 kHz, AC3 Dolby Digital Plus, 3/2 (L,C,R,l,r) + LFE ch, ~384.00 kbps avg | RUS
Аудио2: 48 kHz, AC3 Dolby Digital Plus, 3/2 (L,C,R,l,r) + LFE ch, ~448.00 kbps avg | ENG

Общее
Уникальный идентификатор : 172272988328286290375059687723470115662 (0x819A921848D470D5C72995ED959F534E)
Полное имя : F:OlLanDGroupThe.Man.Who.Killed.Don.Quixote.2018.BDRip(AVC).OlLanDGroup.mkv
Формат : Matroska
Версия формата : Version 4 / Version 2
Размер файла : 2,43 Гбайт
Продолжительность : 2 ч. 13 м.
Общий поток : 2616 Кбит/сек
Название фильма : The.Man.Who.Killed.Don.Quixote.2018 #TorpedoUK#
Дата кодирования : UTC 2019-01-22 02:51:03
Программа кодирования : mkvmerge v29.0.0 ('Like It Or Not') 64-bit
Библиотека кодирования : libebml v1.3.6 + libmatroska v1.4.9

Видео
Идентификатор : 1
Формат : AVC
Формат/Информация : Advanced Video Codec
Профиль формата : High@L4.1
Параметр CABAC формата : Да
Параметр ReFrames формата : 10 кадров
Идентификатор кодека : V_MPEG4/ISO/AVC
Продолжительность : 2 ч. 13 м.
Битрейт : 1784 Кбит/сек
Ширина : 1024 пикселя
Высота : 428 пикселей
Соотношение сторон : 2,40:1
Режим частоты кадров : Постоянный
Частота кадров : 24,000 кадра/сек
Цветовое пространство : YUV
Субдискретизация насыщенности : 4:2:0
Битовая глубина : 8 бит
Тип развёртки : Прогрессивная
Бит/(Пиксели*Кадры) : 0.170
Размер потока : 1,66 Гбайт (68%)
Библиотека кодирования : x264 core 146 r2538 121396c
Настройки программы : cabac=1 / ref=10 / deblock=1:-3:-3 / analyse=0x3:0x113 / me=umh / subme=11 / psy=1 / psy_rd=1.00:0.03 / mixed_ref=1 / me_range=48 / chroma_me=1 / trellis=2 / 8x8dct=1 / cqm=0 / deadzone=21,11 / fast_pskip=1 / chroma_qp_offset=-3 / threads=6 / lookahead_threads=1 / sliced_threads=0 / nr=0 / decimate=1 / interlaced=0 / bluray_compat=0 / constrained_intra=0 / bframes=11 / b_pyramid=2 / b_adapt=2 / b_bias=0 / direct=3 / weightb=1 / open_gop=0 / weightp=2 / keyint=240 / keyint_min=24 / scenecut=40 / intra_refresh=0 / rc_lookahead=40 / rc=2pass / mbtree=0 / bitrate=1784 / ratetol=1.0 / qcomp=0.60 / qpmin=0 / qpmax=69 / qpstep=4 / cplxblur=20.0 / qblur=0.5 / vbv_maxrate=50000 / vbv_bufsize=62500 / nal_hrd=none / filler=0 / ip_ratio=1.40 / pb_ratio=1.30 / aq=1:1.00
Язык : English
Default : Да
Forced : Нет

Аудио #1
Идентификатор : 2
Формат : AC-3
Формат/Информация : Audio Coding 3
Расширение режима : CM (complete main)
Параметр Endianness формата : Big
Идентификатор кодека : A_AC3
Продолжительность : 2 ч. 12 м.
Вид битрейта : Постоянный
Битрейт : 384 Кбит/сек
Каналы : 6 каналов
Расположение каналов : Front: L C R, Side: L R, LFE
Частота : 48,0 КГц
Частота кадров : 31,250 кадров/сек (1536 spf)
Битовая глубина : 16 бит
Метод сжатия : С потерями
Размер потока : 365 Мбайт (15%)
Заголовок : DUB [iTunes]
Язык : Russian
Default : Да
Forced : Нет

Аудио #2
Идентификатор : 3
Формат : AC-3
Формат/Информация : Audio Coding 3
Расширение режима : CM (complete main)
Параметр Endianness формата : Big
Идентификатор кодека : A_AC3
Продолжительность : 2 ч. 13 м.
Вид битрейта : Постоянный
Битрейт : 448 Кбит/сек
Каналы : 6 каналов
Расположение каналов : Front: L C R, Side: L R, LFE
Частота : 48,0 КГц
Частота кадров : 31,250 кадров/сек (1536 spf)
Битовая глубина : 16 бит
Метод сжатия : С потерями
Размер потока : 426 Мбайт (17%)
Заголовок : [Original]
Язык : English
Default : Нет
Forced : Нет

Текст
Идентификатор : 4
Формат : UTF-8
Идентификатор кодека : S_TEXT/UTF8
Идентификатор кодека/Информация : UTF-8 Plain Text
Продолжительность : 2 ч. 12 м.
Битрейт : 39 бит/сек
Count of elements : 1437
Размер потока : 38,5 Кбайт (0%)
Заголовок : Full
Язык : English
Default : Нет
Forced : Нет

Меню
00:00:00.000 : en:Chapter 01
00:00:17.333 : en:Chapter 02
00:08:37.500 : en:Chapter 03
00:18:55.291 : en:Chapter 04
00:27:16.958 : en:Chapter 05
00:35:13.791 : en:Chapter 06
00:41:04.791 : en:Chapter 07
00:46:47.833 : en:Chapter 08
00:56:50.083 : en:Chapter 09
01:09:24.750 : en:Chapter 10
01:19:45.416 : en:Chapter 11
01:26:11.708 : en:Chapter 12
01:35:40.458 : en:Chapter 13
01:45:06.250 : en:Chapter 14
01:50:55.416 : en:Chapter 15
01:58:03.500 : en:Chapter 16
02:06:50.250 : en:Chapter 17





Релиз от:


_________________
Проголосуй за трекер Открытый торрент трекер - RUS-MEDIA.ORG

Проголосуй Открытый торрент трекер - RUS-MEDIA.ORG


Скачать книги и аудио книги через торрент


Вернуться к началу
 Профиль Отправить личное сообщение  
 
   Похожие торренты   Автор   Торрент   Размер 
В этой теме нет новых непрочитанных сообщений. Человек, который убил Дон Кихота / The Man Who Killed Don Quixote [Фэнтези, драма, комедия, 2018] BDRip, Dub [iTunes]

salma3

0 | 0

2.12 ГБ

В этой теме нет новых непрочитанных сообщений. Человек, который убил Дон Кихота / The Man Who Killed Don Quixote [Фэнтези, драма, комедия, 2018] BDRip, Dub [iTunes]

salma3

0 | 1

1.46 ГБ

В этой теме нет новых непрочитанных сообщений. Человек, который убил Дон Кихота / The Man Who Killed Don Quixote [Фэнтези, драма, комедия, 2018] BDRip 1080p, Dub [iTunes]

salma3

0 | 0

13.84 ГБ

В этой теме нет новых непрочитанных сообщений. Человек, который убил Дон Кихота / The Man Who Killed Don Quixote [Фэнтези, драма, комедия, 2018] BDRemux 1080p, Dub [iTunes]

salma3

0 | 0

34.2 ГБ

В этой теме нет новых непрочитанных сообщений. Человек, который убил Гитлера и затем снежного человека / The Man Who Killed Hitler and Then The Bigfoot [Фантастика, драма, приключения, 2018] BDRip, Dub [iTunes]

salma3

0 | 51

1.45 ГБ

В этой теме нет новых непрочитанных сообщений. Человек, который убил Гитлера и затем снежного человека / The Man Who Killed Hitler and Then The Bigfoot [Фантастика, драма, приключения, 2018] BDRip 1080p, Dub [iTunes]

salma3

3 | 0

6.71 ГБ

В этой теме нет новых непрочитанных сообщений. Человек, который убил Гитлера и затем снежного человека / The Man Who Killed Hitler and Then The Bigfoot [Фантастика, драма, приключения, 2018] BDRip 720p, Dub [iTunes]

salma3

0 | 21

3.83 ГБ


Начать новую тему Ответить на тему  [ 1 сообщение ] 




Для Мосгорсуда, Роскомнадзора и рекламодателей:: rstracker[собака]yandex.ru
cron