COVID-19 - Последняя информация о коронавирусе на сайте Минздрава




Торрент файл
скачать торрент магнет ссылка Добавлен: 15 янв 2019, 13:29
Размер: 1.25 ГБ
Сидеров: 0
Личеров: 0
Статус: (salma3)
Автор

СообщениеДобавлено: 15 янв 2019, 13:29 

Не в сети
Супермодератор
Аватара пользователя
Дата регистрации:
15 фев 2012, 16:44
Возраст: 32
Спасибо: 8304 / 2148
Сообщения: 97121
Год выхода: 2019
Жанр: Ужасы, боевик, триллер
Режиссер: Гилберт Джон

В ролях: Грант Боулер, Кэтлин Манро, Мартин Хэнкок, Мика Бальфур, Берт Гринстед

О фильме:
В киберпанковом городе, погрязшем в преступности, беспринципного окружного прокурора жестоко убивают и выбрасывают из окна прямо на его новенький автомобиль. Но прокурор и его машина возвращаются к жизни, как одно целое, и их обуревает жажда мести.



Страна: США, Universal Pictures Home Entertainment
Продолжительность: 01:29:19
Перевод: Любительский (двухголосый закадровый) | HiWay Grope

Файл
Кодек: XviD
Качество: DVDRip
Видео: 720x400, 23.976 fps, ~1805 kbps, 0.26 bit/pixel
Аудио rus: AC3, 48 kHz, 2 ch, 384 Kbps

Реклама: присутствует

Семпл

General
Complete name : D:The.Car.Road.to.Revenge.2019.DVDRip.HiWayGropeThe.Car.Road.to.Revenge.2019.DVDRip.HiWayGrope.avi
Format : AVI
Format/Info : Audio Video Interleave
Format profile : OpenDML
File size : 1.25 GiB
Duration : 1 h 29 min
Overall bit rate : 2 004 kb/s
Writing application : Lavf57.71.100

Video
ID : 0
Format : MPEG-4 Visual
Format profile : Advanced Simple@L5
Format settings, BVOP : No
Format settings, QPel : No
Format settings, GMC : No warppoints
Format settings, Matrix : Default (H.263)
Codec ID : XVID
Codec ID/Hint : XviD
Duration : 1 h 29 min
Bit rate : 1 799 kb/s
Width : 720 pixels
Height : 400 pixels
Display aspect ratio : 16:9
Frame rate : 23.976 (24000/1001) FPS
Color space : YUV
Chroma subsampling : 4:2:0
Bit depth : 8 bits
Scan type : Progressive
Compression mode : Lossy
Bits/(Pixel*Frame) : 0.261
Stream size : 1.12 GiB (90%)
Writing library : XviD 67

Audio
ID : 1
Format : AC-3
Format/Info : Audio Coding 3
Commercial name : Dolby Digital
Codec ID : 2000
Duration : 1 h 29 min
Bit rate mode : Constant
Bit rate : 192 kb/s
Channel(s) : 2 channels
Channel layout : L R
Sampling rate : 48.0 kHz
Frame rate : 31.250 FPS (1536 SPF)
Bit depth : 16 bits
Compression mode : Lossy
Stream size : 123 MiB (10%)
Alignment : Aligned on interleaves
Interleave, duration : 32 ms (0.77 video frame)
Service kind : Complete Main



Релиз от: HiWay Grope


_________________
Проголосуй за трекер Открытый торрент трекер - RUS-MEDIA.ORG

Проголосуй Открытый торрент трекер - RUS-MEDIA.ORG


Скачать книги и аудио книги через торрент


Вернуться к началу
 Профиль Отправить личное сообщение  
 
   Похожие торренты   Автор   Торрент   Размер 
В этой теме нет новых непрочитанных сообщений. Автомобиль-беглец / Runaway Car [боевик, триллер, драма, 1996] DVD5, Mvo [ЕА]

K15

1 | 0

3.89 ГБ

В этой теме нет новых непрочитанных сообщений. Дорога апокалипсиса / Apocalypse Road [триллер, 2016] WEBRip, Avo

salma3

0 | 0

1.46 ГБ

В этой теме нет новых непрочитанных сообщений. Дорога / The Road [драма, триллер, приключения, 2009] BDRip-AVC, Mvo

salma3

13 | 4

2.16 ГБ

В этой теме нет новых непрочитанных сообщений. Дорога на Арлингтон / Arlington Road [триллер, драма, 1998] BDRip 720p, Dub

salma3

0 | 0

5.98 ГБ

В этой теме нет новых непрочитанных сообщений. Дорога грома / Thunder Road [Драма, комедия, 2018] BDRip, Mvo

salma3

0 | 0

1.46 ГБ

В этой теме нет новых непрочитанных сообщений. Дьявольская месть / Devil's Revenge [ужасы, 2019] WEB-DLRip, Mvo

K15

2 | 0

1.45 ГБ

В этой теме нет новых непрочитанных сообщений. Дорога грома / Thunder Road [драма, комедия, 2018] WEB-DLRip, Mvo

salma3

78 | 17

1.37 ГБ


Начать новую тему Ответить на тему  [ 1 сообщение ] 




Для Мосгорсуда, Роскомнадзора и рекламодателей:: rstracker[собака]yandex.ru
cron