COVID-19 - Последняя информация о коронавирусе на сайте Минздрава




Торрент файл
скачать торрент магнет ссылка Добавлен: 14 янв 2019, 21:29
Размер: 1.29 ГБ
Сидеров: 0
Личеров: 0
Статус: (salma3)
Автор

СообщениеДобавлено: 14 янв 2019, 21:29 

Не в сети
Супермодератор
Аватара пользователя
Дата регистрации:
15 фев 2012, 16:44
Возраст: 31
Спасибо: 8273 / 2148
Сообщения: 96529
Год выхода: 2018
Жанр: Драма
Режиссер: Рейнальдо Маркус Грин

В ролях: Xанте Адамс, Джузеппе Ардиззоне, Николь Бахари, Кара Буоно, Дж. В. Кортес, Энджел Куриэль, Майкл Дуродола, Самел Эдвардс, Кассандра Фриман, Иосия Габриэль

О фильме:
Жизнь несколько бруклинцев переворачивается с ног на голову, когда очередной безоружный темнокожий парень становится жертвой полицейского произвола. Первый, молодой отец, записал происшествие на видео, но сомневается, стоит ли его публиковать. Второй - выдающийся атлет, для которого инцидент превращается в призыв к действию. И, наконец, офицер полиции, пытающийся найти своё место в непростой ситуации.



Страна: США, The Department of Motion Pictures, Sight Unseen Pictures, AgX
Продолжительность: 01:36:17
Перевод: Любительский (двухголосый закадровый) | HiWay Grope

Файл
Кодек: XviD
Качество: WEBRip
Видео: 720x304 , 23.976 fps, ~1522 kbps, 0.29 bit/pixel
Аудио rus: AC3, 48 kHz, 6 ch, 384 Kbps

Реклама: присутствует

Семпл

General
Complete name : D:Monsters.And.Men.2018.WEBRip.HiWayGropeMonsters.And.Men.2018.WEBRip.HiWayGrope.avi
Format : AVI
Format/Info : Audio Video Interleave
File size : 1.29 GiB
Duration : 1 h 36 min
Overall bit rate : 1 916 kb/s
Writing application : VirtualDubMod 1.5.10.3 (build 2550/release)
Writing library : VirtualDubMod build 2550/release

Video
ID : 0
Format : MPEG-4 Visual
Format profile : Simple@L5
Format settings : BVOP1
Format settings, BVOP : 1
Format settings, QPel : No
Format settings, GMC : No warppoints
Format settings, Matrix : Default (MPEG)
Codec ID : XVID
Codec ID/Hint : XviD
Duration : 1 h 36 min
Bit rate : 1 522 kb/s
Width : 720 pixels
Height : 304 pixels
Display aspect ratio : 2.40:1
Frame rate : 23.976 (24000/1001) FPS
Color space : YUV
Chroma subsampling : 4:2:0
Bit depth : 8 bits
Scan type : Progressive
Compression mode : Lossy
Bits/(Pixel*Frame) : 0.290
Stream size : 1.02 GiB (79%)
Writing library : XviD 67

Audio
ID : 1
Format : AC-3
Format/Info : Audio Coding 3
Commercial name : Dolby Digital
Codec ID : 2000
Duration : 1 h 36 min
Bit rate mode : Constant
Bit rate : 384 kb/s
Channel(s) : 6 channels
Channel layout : L R C LFE Ls Rs
Sampling rate : 48.0 kHz
Frame rate : 31.250 FPS (1536 SPF)
Bit depth : 16 bits
Compression mode : Lossy
Stream size : 264 MiB (20%)
Alignment : Split accross interleaves
Interleave, duration : 42 ms (1.00 video frame)
Interleave, preload duration : 500 ms
Service kind : Complete Main



Релиз от: HiWay Grope


_________________
Проголосуй за трекер Открытый торрент трекер - RUS-MEDIA.ORG

Проголосуй Открытый торрент трекер - RUS-MEDIA.ORG


Скачать книги и аудио книги через торрент


Вернуться к началу
 Профиль Отправить личное сообщение  
 
   Похожие торренты   Автор   Торрент   Размер 
В этой теме нет новых непрочитанных сообщений. Монстры на свободе / Monsters at Large [Семейный, 2018] WEBRip, Dvo

salma3

10 | 1

1.34 ГБ

В этой теме нет новых непрочитанных сообщений. Монстры на свободе / Monsters at Large [Семейный, 2018] WEBRip 720p, Dvo

salma3

2 | 0

3.17 ГБ

В этой теме нет новых непрочитанных сообщений. Люди в черном: Интернэшнл / Люди в чорному: Інтернешнл / Men in Black International [Фантастика, боевик, комедия, 2019] WEBRip, Dub [Line] [UKR]

salma3

0 | 2

1.46 ГБ

В этой теме нет новых непрочитанных сообщений. Люди в черном: Интернэшнл / Люди в чорному: Інтернешнл / Men in Black International [Фантастика, боевик, комедия, 2019] WEBRip 1080p, Dub [Line] [UKR]

salma3

45 | 7

4.01 ГБ

В этой теме нет новых непрочитанных сообщений. Женщины и порой мужчины / Women... and Sometimes Men [Драма, мелодрама, 2018] WEBRip, Dvo

salma3

0 | 0

1.25 ГБ

В этой теме нет новых непрочитанных сообщений. Монстры на свободе / Monsters at Large [Семейный, 2018] WEB-DLRip, Mvo

salma3

69 | 2

1.37 ГБ

В этой теме нет новых непрочитанных сообщений. Женщины и порой мужчины / Women... and Sometimes Men [Драма, мелодрама, 2018] WEBRip 720p, Dvo

salma3

0 | 0

2.03 ГБ


Начать новую тему Ответить на тему  [ 1 сообщение ] 




Для Мосгорсуда, Роскомнадзора и рекламодателей:: rstracker[собака]yandex.ru
cron