Торрент файл
скачать торрент магнет ссылка Добавлен: 27 апр 2011, 22:20
Размер: 701.86 МБ
Сидеров: 59
Личеров: 3
Автор

СообщениеДобавлено: 27 апр 2011, 22:20 

Не в сети
Супермодератор
Аватара пользователя
Дата регистрации:
22 май 2010, 11:03
Возраст: 32
Спасибо: 7690 / 13
Сообщения: 49871
Дрянные девчонки / Mean Girls



Перевод: Профессиональный (полное дублирование), cубтитры: отсутствуют

Слоган: «Осторожно! Они сзади!»

Формат: LowHDRip-AVC, MKV, H.264, AAC
Страна: США, Канада
Режиссер: Марк С. Уотерс
Жанр: Комедия, драма
Продолжительность: 01:36:53
Год выпуска: 2004

В ролях: Линдси Лохан, Рэйчел МакАдамс, Тина Фей, Тим Медоуз, Эми Полер, Ана Гэстайер, Лэйси Чэберт, Лиззи Каплан, Дэниел Фрэнзиси, Нил Флинн

Описание: Проведя все свое детство в Африке со своими предками-ботаниками, Кэнди Хэрон решила, что знает все про правило «выживает сильнейший». Но закон джунглей полностью пересматривается, когда домашняя 15-летняя девушка в первый раз попадает в обычную школу и влюбляется в бывшего парня самой подлой девчонки в школе…

Рейтинг на IMDB: 7.0/10
Рейтинг КиноПоиск.RU: 7.204
Рейтинг MPAA: PG-13

Видео: 720х384 (1.875), 23,976 fps, MPEG4 AVC (x264) , ~884 kbps avg, 0.131 bit/pixel
Аудио: 48 kHz, , MPEG Layer 3, 2 ch, ~137.00 kbps avg

Дополнительная информация:
бюджет = $17 000 000
маркетинг = $25 000 000
сборы в США = $86 058 055
сборы в мире + $42 912 661 = $128 970 716
сборы в России = $1 300 000


Video #1
ID : 1
Format : AVC
Format/Info : Advanced Video Codec
Format profile :
Format settings, CABAC : Yes
Format settings, ReFrames : 16 frames
Muxing mode : Container profile=Unknown@3.1
Codec ID : V_MPEG4/ISO/AVC
Duration : 1h 36mn
Bit rate : 865 Kbps
Nominal bit rate : 884 Kbps
Width : 720 pixels
Height : 384 pixels
Display aspect ratio : 1.875
Frame rate : 23.976 fps
Resolution : 24 bits
Colorimetry : 4:2:0
Scan type : Progressive
Bits/(Pixel*Frame) : 0.131
Stream size : 599 MiB (85%)
Writing library : x264 core 68 r1183M f21daff
Encoding settings : cabac=1 / ref=16 / deblock=1:-1:-1 / analyse=0x3:0x133 / me=tesa / subme=9 / psy_rd=1.0:0.0 / mixed_ref=1 / me_range=32 / chroma_me=1 / trellis=2 / 8x8dct=1 / cqm=0 / deadzone=21,11 / chroma_qp_offset=-4 / threads=3 / nr=0 / decimate=0 / mbaff=0 / bframes=4 / b_pyramid=1 / b_adapt=2 / b_bias=0 / direct=3 / wpredb=1 / keyint=250 / keyint_min=25 / scenecut=40 / rc=2pass / bitrate=884 / ratetol=1.0 / qcomp=0.60 / qpmin=10 / qpmax=51 / qpstep=4 / cplxblur=20.0 / qblur=0.5 / ip_ratio=1.40 / pb_ratio=1.30 / aq=1:1.00 / zones=133932,139390,q=40
Language : English
Audio #2
ID : 2
Format : MPEG Audio
Format version : Version 1
Format profile : Layer 3
Codec ID : A_MPEG/L3
Codec ID/Hint : MP3
Duration : 1h 36mn
Bit rate mode : Variable
Bit rate : 127 Kbps
Nominal bit rate : 137 Kbps
Channel(s) : 2 channels
Sampling rate : 48.0 KHz
Resolution : 16 bits
Stream size : 88.1 MiB (13%)
Title : Дрянные девчонки [Mean.Girls.2004.D.RP4.ALCO][alco.rampage.ru]
Writing library : LAME3.98r
Encoding settings : -m j -V 4 -q 3 -lowpass 17 --abr 137
Language : Russian









реклама партнёра


Вернуться к началу
 Профиль Отправить личное сообщение  
 
   Похожие торренты   Автор   Торрент   Размер 
В этой теме нет новых непрочитанных сообщений. 21 Sextury - Пляжные Девчонки / Sandy's Girls (2004) DVD5 | Rus

salma3

28 | 6

6.6 ГБ

В этой теме нет новых непрочитанных сообщений. Девчонки / These Girls [драма, комедия, 2005] SATRip, Dvo

salma3

20 | 4

985.96 МБ

В этой теме нет новых непрочитанных сообщений. Jane Darling - Пляжные Девчонки / Sandy's Girls (2004) DVDRip | Rus

salma3

0 | 0

176.73 МБ

В этой теме нет новых непрочитанных сообщений. Ну, и девушки / Некоторые девчонки / Some Girls [драма, мелодрама, комедия, 1988] DVDRemux, Mvo

salma3

51 | 29

3.97 ГБ

В этой теме нет новых непрочитанных сообщений. Девочки / Девчонки / Girls [06х01-02 из 10] ( Комедия, 2017) HDTVRip 720p | Sunshine Studio

marya111

73 | 52

1.34 ГБ

В этой теме нет новых непрочитанных сообщений. Digital Playground - Плохие девчонки 7 / Bad Girls 7 (2011) DVDRip-AVC

salma3

5 | 1

1.45 ГБ

В этой теме нет новых непрочитанных сообщений. 2 Girls Are Better Than 1 / Две Девчонки Лучше, Чем Одна (Kevin Moore, Evil Angel) [2017 г., Gonzo, Big Tits, Threesomes, DVDRip]

salma3

13 | 4

3.51 ГБ


Начать новую тему Ответить на тему  [ 1 сообщение ] 




Для Мосгорсуда, Роскомнадзора и рекламодателей:: mosgorsud-torrent[собачка]yandex.ru