COVID-19 - Последняя информация о коронавирусе на сайте Минздрава




Торрент файл
скачать торрент магнет ссылка Добавлен: 27 дек 2018, 12:20
Размер: 1.37 ГБ
Сидеров: 0
Личеров: 0
Статус: (salma3)
Автор

СообщениеДобавлено: 27 дек 2018, 12:20 

Не в сети
Супермодератор
Аватара пользователя
Дата регистрации:
15 фев 2012, 16:44
Возраст: 31
Спасибо: 8273 / 2148
Сообщения: 96527
Год выпуска: 2012
Жанр: ужасы
Режиссер: Джейсон Хортон

В ролях: Гленн Пламмер, Ли Перкинс, Линда Белла, Эдвард Хендершотт, Клаудия Переа, Блейн Кейд, Глэдис Отеро, Эштон Бланчард, Пол Мишко, Курт Мега

Описание:
Съемочная группа одного малобюджетного хоррора выбирается в дикую местность для съемок одного из эпизодов этого фильма. Однако, вскоре они оказываются сами героями самого настоящего фильма ужасов, т. к. их начинает преследовать стая чудовищ, обитающих в этом лесу.



Производство: Великобритания
Продолжительность: 01:36:52
Перевод: Профессональный (многоголосый [лицензия]

Файл
Формат: AVI
Качество: DVDRip
Видео: 720x400 (1.80:1), 25 fps, XviD build 50 ~2227 kbps avg, 0.31 bit/pixel
Аудио: 48 kHz, AC3 Dolby Digital, 2/0 (L,R) ch, ~192 kbps

Format : AVI
Format/Info : Audio Video Interleave
File size : 1.37 GiB
Duration : 1h 24mn
Overall bit rate : 2 322 Kbps
Writing application : VirtualDubMod 1.5.10.2 (build 2540/release)
Writing library : VirtualDubMod build 2540/release

Video
ID : 0
Format : MPEG-4 Visual
Format profile : Advanced Simple@L5
Format settings, BVOP : Yes
Format settings, QPel : No
Format settings, GMC : No warppoints
Format settings, Matrix : Default (MPEG)
Codec ID : XVID
Codec ID/Hint : XviD
Duration : 1h 24mn
Bit rate : 1 925 Kbps
Width : 720 pixels
Height : 400 pixels
Display aspect ratio : 16:9
Frame rate : 25.000 fps
Resolution : 8 bits
Colorimetry : 4:2:0
Scan type : Progressive
Bits/(Pixel*Frame) : 0.267
Stream size : 1.13 GiB (83%)
Writing library : XviD 1.2.1 (UTC 2008-12-04)

Audio #1
ID : 1
Format : AC-3
Format/Info : Audio Coding 3
Codec ID : 2000
Duration : 1h 24mn
Bit rate mode : Constant
Bit rate : 192 Kbps
Channel(s) : 2 channels
Channel positions : L R
Sampling rate : 48.0 KHz
Stream size : 116 MiB (8%)
Alignment : Split accross interleaves
Interleave, duration : 40 ms (1.00 video frame)
Interleave, preload duration : 500 ms

Audio #2
ID : 2
Format : AC-3
Format/Info : Audio Coding 3
Codec ID : 2000
Duration : 1h 23mn
Bit rate mode : Constant
Bit rate : 192 Kbps
Channel(s) : 2 channels
Channel positions : L R
Sampling rate : 48.0 KHz
Stream size : 115 MiB (8%)
Alignment : Split accross interleaves
Interleave, duration : 40 ms (1.01 video frame)
Interleave, preload duration : 500 ms




_________________
Проголосуй за трекер Открытый торрент трекер - RUS-MEDIA.ORG

Проголосуй Открытый торрент трекер - RUS-MEDIA.ORG


Скачать книги и аудио книги через торрент


Вернуться к началу
 Профиль Отправить личное сообщение  
 
   Похожие торренты   Автор   Торрент   Размер 
В этой теме нет новых непрочитанных сообщений. Монстры в лесах / Monsters in the Woods [ужасы, 2012] DVDRip, Mvo [Лицензия]

salma3

0 | 0

704.24 МБ

В этой теме нет новых непрочитанных сообщений. Монстры на свободе / Monsters at Large [Семейный, 2018] WEB-DLRip, Mvo

salma3

69 | 2

1.37 ГБ

В этой теме нет новых непрочитанных сообщений. Монстры и люди / Monsters and Men [Драма, 2018] WEBRip, Dvo

salma3

0 | 0

1.29 ГБ

В этой теме нет новых непрочитанных сообщений. Монстры на свободе / Monsters at Large [Семейный, 2018] WEBRip, Dvo

salma3

10 | 1

1.34 ГБ

В этой теме нет новых непрочитанных сообщений. Монстры на свободе / Monsters at Large [Семейный, 2018] WEBRip 720p, Dvo

salma3

2 | 0

3.17 ГБ

В этой теме нет новых непрочитанных сообщений. Nat Geo Wild: Прирождённые монстры. Тигровая змея / Natural born monsters (2015) HDTVRip | P1

salma3

0 | 0

620.16 МБ

В этой теме нет новых непрочитанных сообщений. Nat Geo Wild: Прирождённые монстры. Тигровая змея / Natural born monsters (2015) HDTVRip-AVC | P1

salma3

0 | 0

814.79 МБ


Начать новую тему Ответить на тему  [ 1 сообщение ] 




Для Мосгорсуда, Роскомнадзора и рекламодателей:: rstracker[собака]yandex.ru
cron