COVID-19 - Последняя информация о коронавирусе на сайте Минздрава




Торрент файл
скачать торрент магнет ссылка Добавлен: 18 ноя 2018, 18:04
Размер: 954.51 МБ
Сидеров: 0
Личеров: 0
Статус: (salma3)
Автор

СообщениеДобавлено: 18 ноя 2018, 18:04 

Не в сети
Супермодератор
Аватара пользователя
Дата регистрации:
15 фев 2012, 16:44
Возраст: 31
Спасибо: 8273 / 2148
Сообщения: 96527
Год выхода: 1981
Жанр: фантастика, комедия, семейный
Режиссер: Джеймс Л. Конуэй

В ролях: Берл Айвз, Кристофер Коннелли, Мередит МакРэй, Джозеф Кампанелла, Марк Джилпин, Тодд Портер, Минди Дау, Элисса Лидз, Питер Исаксен, Джон Шак

О фильме:
Семья пришельцев, корабль которых повреждён в космической буре, терпит крушение на Земле. Преследуемые федеральными агентами, они встречают мальчика и его дедушку, которые оказывают поддержку пришельцам, нуждающимся в материале для ремонта инопланетного судна, чтобы возвратиться на родную планету...



Страна: США
Продолжительность: 01:38:30
Перевод: профессиональный (двухголосый закадровый)

Файл
Качество: VHSRip
Формат: AVI
Видео: XviD, 720x544 (4:3), 25.000 fps, 1217 kbps, 0.124 bit/pixel
Аудио: MP3 2.0, 48 kHz, 128 kbps



Общее
Полное имя : Earthbound.1981.VHSRip.avi
Формат : AVI
Формат/Информация : Audio Video Interleave
Размер файла : 955 Мбайт
Продолжительность : 1 ч. 38 м.
Общий поток : 1355 Кбит/сек
Программа кодирования : VirtualDubMod 1.5.4.1 (build 2178/release)
Библиотека кодирования : VirtualDub build 32817/release

Видео
Идентификатор : 0
Формат : MPEG-4 Visual
Профиль формата : Advanced Simple@L5
Параметр BVOP формата : 1
Параметр QPel формата : Нет
Параметр GMC формата : Без точки перехода
Параметр матрицы формата : Выборочная
Идентификатор кодека : XVID
Идентификатор кодека/Подсказка : XviD
Продолжительность : 1 ч. 38 м.
Битрейт : 1217 Кбит/сек
Ширина : 720 пикселей
Высота : 544 пикселя
Соотношение сторон : 4:3
Частота кадров : 25,000 кадров/сек
Цветовое пространство : YUV
Субдискретизация насыщенности : 4:2:0
Битовая глубина : 8 бит
Тип развёртки : Прогрессивная
Метод сжатия : С потерями
Бит/(Пиксели*Кадры) : 0.124
Размер потока : 857 Мбайт (90%)
Библиотека кодирования : XviD 1.2.1 (UTC 2008-12-04)

Аудио
Идентификатор : 1
Формат : MPEG Audio
Версия формата : Version 1
Профиль формата : Layer 3
Режим : Joint stereo
Расширение режима : MS Stereo
Идентификатор кодека : 55
Идентификатор кодека/Подсказка : MP3
Продолжительность : 1 ч. 38 м.
Вид битрейта : Постоянный
Битрейт : 128 Кбит/сек
Каналы : 2 канала
Частота : 48,0 КГц
Метод сжатия : С потерями
Размер потока : 90,2 Мбайт (9%)
Выравнивание : Соединение по промежуткам
Продолжительность промежутка : 40 мс. (1,00 видеокадр)
Время предзагрузки промежутка : 504 мс.
Библиотека кодирования : LAME3.98.2


_________________
Проголосуй за трекер Открытый торрент трекер - RUS-MEDIA.ORG

Проголосуй Открытый торрент трекер - RUS-MEDIA.ORG


Скачать книги и аудио книги через торрент


Вернуться к началу
 Профиль Отправить личное сообщение  
 
   Похожие торренты   Автор   Торрент   Размер 
В этой теме нет новых непрочитанных сообщений. Земные девушки легко доступны / Earth girls are easy [Музыкальная комедия, мелодрама, 1988] WEB-DL 1080p, Dvo

salma3

0 | 0

11.06 ГБ

В этой теме нет новых непрочитанных сообщений. Смертельные узы / Wedlock [фантастика, боевик, триллер, 1991] DVDRip-AVC, Dvo

salma3

0 | 0

3.91 ГБ

В этой теме нет новых непрочитанных сообщений. Земные желания / Earthly Possessions [драма, мелодрама, криминал, 1999] DVDRip, Dvo

salma3

0 | 0

1.46 ГБ

В этой теме нет новых непрочитанных сообщений. Резиновый Тарзан / Gummi-Tarzan [драма, семейный, 1981] WEB-DL 1080p, Dvo

salma3

0 | 0

2.73 ГБ

В этой теме нет новых непрочитанных сообщений. Бандиты во времени / Time Bandits [Приключения, фантастика, семейный, 1981] BDRip 720p, Mvo [Remastered]

salma3

0 | 1

12.15 ГБ

В этой теме нет новых непрочитанных сообщений. Сканнеры / Scanners [Ужасы, фантастика, триллер, 1981] BDRip 720p, Dvo

salma3

12 | 3

4.37 ГБ

В этой теме нет новых непрочитанных сообщений. Лирика Джейсона / Узы братства / Jason's Lyric [драма, криминал, 1994] HDTVRip, Dvo [НТВ+]

salma3

0 | 0

1.45 ГБ


Начать новую тему Ответить на тему  [ 1 сообщение ] 




Для Мосгорсуда, Роскомнадзора и рекламодателей:: rstracker[собака]yandex.ru
cron