Торрент файл
скачать торрент магнет ссылка Добавлен: 24 апр 2011, 20:21
Размер: 2.19 ГБ
Сидеров: 41
Личеров: 5
Автор

СообщениеДобавлено: 24 апр 2011, 20:21 

Не в сети
Супермодератор
Аватара пользователя
Дата регистрации:
22 май 2010, 11:03
Возраст: 31
Спасибо: 7513 / 13
Сообщения: 49940
Безумный спецназ / The Men Who Stare at Goats



Перевод: Профессиональный (полное дублирование), Субтитры: Русские, Английские

Формат: HDRip, MKV, MPEG4, AC3
Страна: США, Великобритания
Режиссер: Грант Хеслов / Grant Heslov
Жанр: Комедия
Продолжительность: 01:33:45
Год выпуска: 2009

В ролях: Джордж Клуни, Юэн МакГрегор, Джефф Бриджес, Кевин Спейси, Стивен Лэнг, Роберт Патрик, Валид Цайтер, Стивен Рут, Гленн Моршауэр, Ник Офферман

Описание: Экранизация одноименной книги британского журналиста Джона Ронсона, посвященной людям с паранормальными способностями, состоящим на службе в Армии США. Главный герой, офицер спецподразделения Лин Кэссиди, выполняет сверхсекретное задание, о котором ничего неизвестно даже армии США. Газетный репортер Боб Уилтон следует по пятам за Лином, пытаясь разузнать о его миссии…

Рейтинг Кинопоиск.RU: 5.932
Рейтинг IMDB: 6.4/10
Рейтинг MPAA: R

Видео: 1280x544(2.35:1), MPEG4 AVC (x264) ~2 586 kbps avg,0.155 bit/pixel
Аудио#1: Русские:48 kHz, Audio Coding 3 (AC3), 6 ch, 384.00 kbps[Полное дублирование]
Аудио#2: Английские:48 kHz, Audio Coding 3 (AC3), 6 ch, 384.00 kbps[Оригинал]




General
Complete name: E:\Кино\КОМЕДИИ\The.Men.Who.Stare.at.Goats.mkv
Format: Matroska
File size: 2.19 GiB
Duration: 1h 33mn
Overall bit rate: 3 339 Kbps
Movie name: The.Men.Who.Stare.at.Goats :: 2009 :: HDRip by duk
Encoded date: UTC 2010-06-04 19:09:06
Writing application: mkvmerge v2.7.0 ('Do It Again') built on Apr 15 2009 00:27:10
Writing library: libebml v0.7.7 + libmatroska v0.8.1

Video
ID: 1
Format: AVC
Format/Info: Advanced Video Codec
Format profile:
Format settings, CABAC: Yes
Format settings, ReFrames: 10 frames
Muxing mode: Container profile=Unknown@4.0
Codec ID: V_MPEG4/ISO/AVC
Duration: 1h 33mn
Bit rate: 2 586 Kbps
Width: 1 280 pixels
Height: 544 pixels
Display aspect ratio: 2.35:1
Frame rate: 23.976 fps
Color space: YUV
Chroma subsampling: 4:2:0
Bit depth: 8 bits
Scan type: Progressive
Bits/(Pixel*Frame): 0.155
Stream size: 1.64 GiB (75%)
Title: MPEG-4 part 10 (AVC)
Writing library: x264 core 80 r1376M 3feaec2
Encoding settings: cabac=1 / ref=10 / deblock=1:-2:-2 / analyse=0x3:0x133 / me=umh / subme=10 / psy=1 / psy_rd=1.0:0.2 / mixed_ref=1 / me_range=24 / chroma_me=1 / trellis=2 / 8x8dct=1 / cqm=0 / deadzone=21,11 / fast_pskip=0 / chroma_qp_offset=-3 / threads=6 / sliced_threads=0 / nr=0 / decimate=1 / mbaff=0 / constrained_intra=0 / bframes=8 / b_pyramid=0 / b_adapt=2 / b_bias=0 / direct=3 / wpredb=1 / wpredp=2 / keyint=250 / keyint_min=25 / scenecut=40 / rc_lookahead=60 / rc=2pass / mbtree=1 / bitrate=2586 / ratetol=1.0 / qcomp=0.60 / qpmin=10 / qpmax=51 / qpstep=4 / cplxblur=20.0 / qblur=0.5 / ip_ratio=1.40 / aq=1:1.00
Language: English

Audio #1
ID: 2
Format: AC-3
Format/Info: Audio Coding 3
Mode extension: CM (complete main)
Codec ID: A_AC3
Duration: 1h 33mn
Bit rate mode: Constant
Bit rate: 384 Kbps
Channel(s): 6 channels
Channel positions: Front: L C R, Side: L R, LFE
Sampling rate: 48.0 KHz
Stream size: 258 MiB (12%)
Title: AC3, 48 KHz, 384 kbps, CBR, 6 Ch (Front: L C R, Side: L R, LFE)
Language: Russian

Audio #2
ID: 3
Format: AC-3
Format/Info: Audio Coding 3
Mode extension: CM (complete main)
Codec ID: A_AC3
Duration: 1h 33mn
Bit rate mode: Constant
Bit rate: 384 Kbps
Channel(s): 6 channels
Channel positions: Front: L C R, Side: L R, LFE
Sampling rate: 48.0 KHz
Stream size: 258 MiB (12%)
Title: AC3, 48 KHz, 384 kbps, CBR, 6 Ch (Front: L C R, Side: L R, LFE)
Language: English

Text #1
ID: 4
Format: UTF-8
Codec ID: S_TEXT/UTF8
Codec ID/Info: UTF-8 Plain Text
Language: Russian

Text #2
ID: 5
Format: UTF-8
Codec ID: S_TEXT/UTF8
Codec ID/Info: UTF-8 Plain Text
Language: English










реклама партнёра


Вернуться к началу
 Профиль Отправить личное сообщение  
 
   Похожие торренты   Автор   Торрент   Размер 
В этой теме нет новых непрочитанных сообщений. Stare Down the Sun - The Same Storm [2009, Alt. Rock, MP3]

PriZraK

0 | 1

138.01 МБ

В этой теме нет новых непрочитанных сообщений. Безумный тридцатник / Dirty 30 [комедия, 2016] WEB-DLRip, Mvo

salma3

1878 | 533

1.37 ГБ

В этой теме нет новых непрочитанных сообщений. Безумный тридцатник / Dirty 30 [комедия, 2016] WEB-DL 1080p, Mvo

salma3

490 | 70

3.63 ГБ

В этой теме нет новых непрочитанных сообщений. Layment - Of Gods And Goats [2014, Epic, Heavy Metal, MP3]

PriZraK

0 | 1

109.25 МБ

В этой теме нет новых непрочитанных сообщений. Безумный гонщик / Blood Car [Ужасы, комедия, 2007] BDRip, Mvo

salma3

0 | 0

1.46 ГБ

В этой теме нет новых непрочитанных сообщений. Безумный Макс: Дорога ярости / Mad Max: Fury Road (Джордж Миллер) [фантастика, боевик, триллер, приключения, 2015] HDRip, Dub [iTunes]

Dracon

1177 | 27

2.19 ГБ

В этой теме нет новых непрочитанных сообщений. Безумный Макс: Дорога ярости / Mad Max: Fury Road (Джордж Миллер) [фантастика, боевик, триллер, приключения, 2015] HDRip, Dub [iTunes]

Dracon

3233 | 102

1.46 ГБ


Начать новую тему Ответить на тему  [ 1 сообщение ] 




Для Мосгорсуда, Роскомнадзора и рекламодателей:: mosgorsud-torrent[собачка]yandex.ru