COVID-19 - Последняя информация о коронавирусе на сайте Минздрава




Торрент файл
скачать торрент магнет ссылка Добавлен: 05 ноя 2018, 12:52
Размер: 1.21 ГБ
Сидеров: 0
Личеров: 0
Статус: (salma3)
Автор

СообщениеДобавлено: 05 ноя 2018, 12:52 

Не в сети
Супермодератор
Аватара пользователя
Дата регистрации:
15 фев 2012, 16:44
Возраст: 31
Спасибо: 8273 / 2148
Сообщения: 96529
Год выхода: 2018
Жанр: Фантастика, драма
Режиссер: Карл Страти

В ролях: Стивен Огг, Элис Лоу

О фильме:
Очнувшись, Трой Холлоуэй осознает, что находится в спасательном шаттле, направляющемся в сторону солнца. Командир Робертс вместе с командой уже мчится ему на помощь, но ситуация всё равно остается ужасной. Уже не говоря о том, что после недавней потери сына Холлоуэй не особо жаждет спасения. Однако командир не позволяет ему спокойно ждать смерти и всячески помогает ему с помощью слабой радиосвязи, пытаясь вытащить его из этого ада.



Страна: Великобритания, Goldfinch Studios,Premiere Picture,Strathie Film
Продолжительность: 01:32:36
Перевод: Любительский (двухголосый закадровый) | HiWay Grope

Файл
Кодек: XviD
Качество: WEBRip
Видео: 720x304, 23.976 fps, ~1672 kbps, 0.32 bit/pixel
Аудио rus: AC3, 48 kHz, 2 ch, 192 Kbps

Реклама: присутствует

Семпл

General
Complete name : D:Solis.2018.WEBRip.HiWayGropeSolis.2018.WEBRip.HiWayGrope.avi
Format : AVI
Format/Info : Audio Video Interleave
Format profile : OpenDML
File size : 1.21 GiB
Duration : 1 h 32 min
Overall bit rate : 1 871 kb/s
Writing application : Lavf57.71.100

Video
ID : 0
Format : MPEG-4 Visual
Format profile : Simple@L5
Format settings : BVOP1
Format settings, BVOP : 1
Format settings, QPel : No
Format settings, GMC : No warppoints
Format settings, Matrix : Default (MPEG)
Codec ID : XVID
Codec ID/Hint : XviD
Duration : 1 h 32 min
Bit rate : 1 666 kb/s
Width : 720 pixels
Height : 304 pixels
Display aspect ratio : 2.40:1
Frame rate : 23.976 (24000/1001) FPS
Color space : YUV
Chroma subsampling : 4:2:0
Bit depth : 8 bits
Scan type : Progressive
Compression mode : Lossy
Bits/(Pixel*Frame) : 0.317
Stream size : 1.08 GiB (89%)
Writing library : XviD 67

Audio
ID : 1
Format : AC-3
Format/Info : Audio Coding 3
Codec ID : 2000
Duration : 1 h 32 min
Bit rate mode : Constant
Bit rate : 192 kb/s
Channel(s) : 2 channels
Channel positions : Front: L R
Sampling rate : 48.0 kHz
Frame rate : 31.250 FPS (1536 SPF)
Bit depth : 16 bits
Compression mode : Lossy
Stream size : 127 MiB (10%)
Alignment : Aligned on interleaves
Interleave, duration : 32 ms (0.77 video frame)
Service kind : Complete Main



Релиз от: HiWay Grope


_________________
Проголосуй за трекер Открытый торрент трекер - RUS-MEDIA.ORG

Проголосуй Открытый торрент трекер - RUS-MEDIA.ORG


Скачать книги и аудио книги через торрент


Вернуться к началу
 Профиль Отправить личное сообщение  
 
   Похожие торренты   Автор   Торрент   Размер 
В этой теме нет новых непрочитанных сообщений. Солнце / Solis [Фантастика, драма, 2018] WEBRip 720p, Dvo

salma3

295 | 58

2.02 ГБ

В этой теме нет новых непрочитанных сообщений. Солнце / Solis [боевик, фантастика, 2018] BDRemux 1080р, Dvo

salma3

0 | 0

24.27 ГБ

В этой теме нет новых непрочитанных сообщений. Медное солнце [01-02 из 02] [Драма, военный, 2018] WEBRip

salma3

0 | 0

3.09 ГБ

В этой теме нет новых непрочитанных сообщений. Медное солнце [01-02 из 02] [Драма, военный, 2018] WEBRip 1080p

salma3

0 | 0

7 ГБ

В этой теме нет новых непрочитанных сообщений. Дубликат / Jonathan [Фантастика, драма, 2018] WEBRip, Dvo

salma3

382 | 104

1.25 ГБ

В этой теме нет новых непрочитанных сообщений. Дубликат / Jonathan [Фантастика, драма, 2018] WEBRip 720p, Dvo

salma3

0 | 0

2.15 ГБ

В этой теме нет новых непрочитанных сообщений. Первые / The First [S01] [Фантастика, драма, 2018] WEBRip 720p, Dvo [SunshineStudio]

salma3

0 | 0

5.03 ГБ


Начать новую тему Ответить на тему  [ 1 сообщение ] 




Для Мосгорсуда, Роскомнадзора и рекламодателей:: rstracker[собака]yandex.ru
cron