Торрент файл
скачать торрент магнет ссылка Добавлен: 24 апр 2011, 20:13
Размер: 1.45 ГБ
Сидеров: 3
Личеров: 5
Автор

СообщениеДобавлено: 24 апр 2011, 20:13 

Не в сети
Супермодератор
Аватара пользователя
Дата регистрации:
22 май 2010, 11:03
Возраст: 31
Спасибо: 7509 / 13
Сообщения: 49940
[b]Кальмар и кит / The Squid and the Whale[/b]



Перевод: Любительский (двухголосый)
Субтитры: русский, английский, испанский
Формат: HDTVRip, MKV, AVC, AC3

Страна:США

Режиссер: Ной Баумбах
Жанр: Комедия, драма.
Продолжительность: 01:17:31
Год выпуска: 2005

В ролях: Оуэн Клайн, Джефф Дэниелс, Лора Линни, Джесси Айзенберг, Уильям Болдуин, Дэвид Бенджер, Анна Пакуин, Молли Бартон, Бо Беркман, Мэттью Каплан.

Описание: Глава эксцентричной бруклинской семьи в свое время был известным писателем, однако сейчас он вынужден преподавать. Когда его жена открывает в себе писательский талант, ревность разрывает семью пополам, заставляя двух их сыновей заново строить отношения с родителями. Жена начинает встречаться с тренером младшего сына по теннису, в то время как муж заводит роман со своей студенткой, за которой также ухаживает старший сын.

Рейтинг на IMDB:7.6 / 10
Рейтинг на КиноПоиск.RU:7.04
Рейтинг на MPAA:R

Видео: 704x392 (16/9), 25 fps, AVC MPEG4 , ~2137 kbps avg, 0.31 bit/pixel.
Аудио #1: русский48 kHz, AC3 Dolby Digital, 2/0 (L,R)ch, ~160 kbps avg [двухголосый];
Аудио #2: английский48 kHz, AC3 Dolby Digital, 3/2 (L,C,R,l,r) + LFE ch, ~384 kbps avg [оригинал].




Video
ID : 1
Format : AVC
Format/Info : Advanced Video Codec
Format profile :
Format settings, CABAC : No
Format settings, ReFrames : 1 frame
Muxing mode : Container profile=Unknown@3.0
Codec ID : V_MPEG4/ISO/AVC
Duration : 1h 17mn
Bit rate : 2 137 Kbps
Width : 704 pixels
Height : 392 pixels
Display aspect ratio : 16:9
Frame rate : 25.000 fps
Color space : YUV
Chroma subsampling : 4:2:0
Bit depth : 8 bits
Scan type : Progressive
Bits/(Pixel*Frame) : 0.310
Stream size : 1.13 GiB (78%)
Writing library : x264 core 92 r1510 33d382a
Encoding settings : cabac=0 / ref=1 / deblock=0:0:0 / analyse=0x1:0 / me=dia / subme=1 / psy=1 / psy_rd=0.00:0.00 / mixed_ref=0 / me_range=16 / chroma_me=1 / trellis=0 / 8x8dct=0 / cqm=0 / deadzone=21,11 / fast_pskip=1 / chroma_qp_offset=0 / threads=1 / sliced_threads=0 / nr=0 / decimate=1 / interlaced=0 / constrained_intra=0 / bframes=0 / wpredp=0 / keyint=250 / keyint_min=25 / scenecut=40 / intra_refresh=0 / rc=2pass / mbtree=0 / bitrate=2137 / ratetol=1.0 / qcomp=0.60 / qpmin=10 / qpmax=51 / qpstep=4 / cplxblur=20.0 / qblur=0.5 / ip_ratio=1.40 / aq=0
Language : English

Audio #1
ID : 2
Format : AC-3
Format/Info : Audio Coding 3
Mode extension : CM (complete main)
Codec ID : A_AC3
Duration : 1h 17mn
Bit rate mode : Constant
Bit rate : 160 Kbps
Channel(s) : 2 channels
Channel positions : Front: L R
Sampling rate : 48.0 KHz
Bit depth : 16 bits
Stream size : 88.7 MiB (6%)
Language : Russian

Audio #2
ID : 3
Format : AC-3
Format/Info : Audio Coding 3
Mode extension : CM (complete main)
Codec ID : A_AC3
Duration : 1h 17mn
Bit rate mode : Constant
Bit rate : 384 Kbps
Channel(s) : 6 channels
Channel positions : Front: L C R, Side: L R, LFE
Sampling rate : 48.0 KHz
Bit depth : 16 bits
Stream size : 213 MiB (14%)
Language : English

Text #1
ID : 4
Format : UTF-8
Codec ID : S_TEXT/UTF8
Codec ID/Info : UTF-8 Plain Text
Language : Russian

Text #2
ID : 5
Format : UTF-8
Codec ID : S_TEXT/UTF8
Codec ID/Info : UTF-8 Plain Text
Language : English

Text #3
ID : 6
Format : UTF-8
Codec ID : S_TEXT/UTF8
Codec ID/Info : UTF-8 Plain Text
Language : Spanish













реклама партнёра


Вернуться к началу
 Профиль Отправить личное сообщение  
 
   Похожие торренты   Автор   Торрент   Размер 
В этой теме нет новых непрочитанных сообщений. Кальмар и кит / The Squid and the Whale [драма, комедия, 2005] BDRip 1080p, Mvo

salma3

6 | 4

9.96 ГБ

В этой теме нет новых непрочитанных сообщений. Кальмар и кит / The Squid and the Whale [драма, комедия, 2005] BDRemux 1080p, Mvo

salma3

8 | 7

23.47 ГБ

В этой теме нет новых непрочитанных сообщений. Кит / The whale [Драма, приключения, 2013] HDTVRip, avo

Dracon

9 | 4

770.59 МБ

В этой теме нет новых непрочитанных сообщений. Кит / The whale [Драма, приключения, 2013] HDTVRip 720p, avo+sub

Dracon

62 | 2

1.87 ГБ

В этой теме нет новых непрочитанных сообщений. Кит / The whale (Олрик Райли / Alrick Riley) [2013г., драма, приключения, HDTVRip] Sub

Alfredovich

6 | 4

732.86 МБ

В этой теме нет новых непрочитанных сообщений. Марго на свадьбе / Margot at the Wedding (Ноа Баумбах) [2007, Драма, WEB-DL 720] dvo

Nickolas3435

3 | 3

3.39 ГБ

В этой теме нет новых непрочитанных сообщений. Марго на свадьбе / Margot at the Wedding (Ноа Баумбах) [2007, Драма, WEB-DLRip] dvo

Nickolas3435

23 | 3

1.47 ГБ


Начать новую тему Ответить на тему  [ 1 сообщение ] 




Для Мосгорсуда, Роскомнадзора и рекламодателей:: mosgorsud-torrent[собачка]yandex.ru