COVID-19 - Последняя информация о коронавирусе на сайте Минздрава




Торрент файл
скачать торрент магнет ссылка Добавлен: 31 окт 2018, 12:45
Размер: 1.43 ГБ
Сидеров: 51
Личеров: 58
Статус: (salma3)
Автор

СообщениеДобавлено: 31 окт 2018, 12:45 

Не в сети
Супермодератор
Аватара пользователя
Дата регистрации:
15 фев 2012, 16:44
Возраст: 32
Спасибо: 8298 / 2148
Сообщения: 97020
Год выхода: 2018
Жанр: Фэнтези, боевик, приключения
Режиссер: Дон Майкл Пол

В ролях: Зэк МакГоун, Нэйтан Джонс, Питер Менса, Кэти Луиз Саундерс, Перл Туси, Ховард Чарльз, Нг Мэйлин, Инге Бекманн, Ризель Янук, Стефани Шилдкнект

О фильме:
Царь Скорпионов объединяется с женщином-воином Талой, сестрой Короля Нубии. Вместе они ищут легендарную Книгу Душ. Эта книга поможет им положить конец господству Лорда Войны.



Страна: США
Продолжительность: 01:42:21
Перевод: Любительский (двухголосый закадровый) | HiWay Grope

Файл
Кодек: XviD
Качество: WEBRip
Видео: 720x400, 23.976 fps, ~1803 kbps, 0.26 bit/pixel
Аудио rus: AC3, 48 kHz, 2 ch, 192 Kbps

Реклама: присутствует

Семпл

General
Complete name : D:The.Scorpion.King.Book.of.Souls.2018.WEBRip.HiWayGropeThe.Scorpion.King.Book.of.Souls.2018.WEBRip.HiWayGrope.avi
Format : AVI
Format/Info : Audio Video Interleave
Format profile : OpenDML
File size : 1.43 GiB
Duration : 1 h 42 min
Overall bit rate : 2 002 kb/s
Writing application : Lavf57.71.100

Video
ID : 0
Format : MPEG-4 Visual
Format profile : Advanced Simple@L5
Format settings : BVOP1
Format settings, BVOP : 1
Format settings, QPel : No
Format settings, GMC : No warppoints
Format settings, Matrix : Default (H.263)
Codec ID : XVID
Codec ID/Hint : XviD
Duration : 1 h 42 min
Bit rate : 1 798 kb/s
Width : 720 pixels
Height : 400 pixels
Display aspect ratio : 16:9
Frame rate : 23.976 (24000/1001) FPS
Color space : YUV
Chroma subsampling : 4:2:0
Bit depth : 8 bits
Scan type : Progressive
Compression mode : Lossy
Bits/(Pixel*Frame) : 0.260
Stream size : 1.29 GiB (90%)
Writing library : XviD 67

Audio
ID : 1
Format : AC-3
Format/Info : Audio Coding 3
Codec ID : 2000
Duration : 1 h 42 min
Bit rate mode : Constant
Bit rate : 192 kb/s
Channel(s) : 2 channels
Channel positions : Front: L R
Sampling rate : 48.0 kHz
Frame rate : 31.250 FPS (1536 SPF)
Bit depth : 16 bits
Compression mode : Lossy
Stream size : 141 MiB (10%)
Alignment : Aligned on interleaves
Interleave, duration : 32 ms (0.77 video frame)
Service kind : Complete Main



Релиз от: HiWay Grope


_________________
Проголосуй за трекер Открытый торрент трекер - RUS-MEDIA.ORG

Проголосуй Открытый торрент трекер - RUS-MEDIA.ORG


Скачать книги и аудио книги через торрент


Вернуться к началу
 Профиль Отправить личное сообщение  
 
   Похожие торренты   Автор   Торрент   Размер 
В этой теме нет новых непрочитанных сообщений. Царь Скорпионов: Книга Душ / The Scorpion King: Book of Souls [Фэнтези, боевик, приключения, 2018] WEBRip 720p, Dvo

salma3

500 | 58

2.28 ГБ

В этой теме нет новых непрочитанных сообщений. Царь Скорпионов: Книга Душ / The Scorpion King: Book of Souls [Фэнтези, боевик, приключения, 2018] BDRemux 1080p, Dub

salma3

0 | 0

26.84 ГБ

В этой теме нет новых непрочитанных сообщений. Царь Скорпионов: Книга Душ / The Scorpion King: Book of Souls [Фэнтези, боевик, приключения, 2018] BDRip 1080p, Dub

salma3

3 | 9

7.79 ГБ

В этой теме нет новых непрочитанных сообщений. Царь скорпионов / The Scorpion King [фэнтези, боевик, триллер, приключения, 2002] UHD BDRip 1080p, Dub

NTL

0 | 0

8.31 ГБ

В этой теме нет новых непрочитанных сообщений. Царь скорпионов / The Scorpion King [фэнтези, боевик, триллер, 2002] UHD BDRemux 2160p, Dub [4K]

salma3

0 | 0

49.53 ГБ

В этой теме нет новых непрочитанных сообщений. Царь скорпионов / The Scorpion King [Фэнтези, боевик, триллер, 2002] UHD Blu-Ray 2160p, Dub [4K] [Лицензия]

salma3

0 | 0

56.45 ГБ

В этой теме нет новых непрочитанных сообщений. Книга Джунглей / The Jungle Book [Приключения, мелодрама, семейный, 1994] WEB-DLRip-AVC, Dvo

salma3

2 | 1

2.18 ГБ


Начать новую тему Ответить на тему  [ 1 сообщение ] 




Для Мосгорсуда, Роскомнадзора и рекламодателей:: rstracker[собака]yandex.ru
cron