COVID-19 - Последняя информация о коронавирусе на сайте Минздрава




Торрент файл
скачать торрент магнет ссылка Добавлен: 29 окт 2018, 12:27
Размер: 2.45 ГБ
Сидеров: 0
Личеров: 0
Статус: (salma3)
Автор

СообщениеДобавлено: 29 окт 2018, 12:27 

Не в сети
Супермодератор
Аватара пользователя
Дата регистрации:
15 фев 2012, 16:44
Возраст: 31
Спасибо: 8280 / 2148
Сообщения: 96711
Год выхода: 2007
Жанр: боевик, триллер, детектив
Режиссер: Джон Тёртелтауб

В ролях: Николас Кейдж, Дайан Крюгер, Джастин Барта, Джон Войт, Хелен Миррен, Эд Харрис, Харви Кейтель, Брюс Гринвуд, Тай Буррелл, Майкл Мейзе, Тимоти В. Мерфи, Алисия Коппола, Армандо Риско, Альберт Холл, Джоэль Гретш, Кристиан Камарго, Брент Бриско, Билли Ангер, Майкл Мануэль, Брэд Роу,

О фильме:
Охотник за сокровищами Бен Гейтс, вооружившись поддержкой любимой женщины, верного друга Райли, а также своих родителей, отправляется на поиски затерянного золотого города. Только пройдя сквозь череду невероятных и увлекательных приключений, Бену удастся очистить имя своего предка от обвинений в убийстве Авраама Линкольна. Но не все так просто — параллельные поиски города ведет и некий Митч Уилкинсон, готовый на все ради достижения цели.



Страна: США
Продолжительность: 02:04:42
Перевод: Дублированный (Невафильм)
Субтитры: Русские, английские

Файл
Кодек: x264
Формат: Matroska
Качество: WEB-DLRip-AVC | Open Matte | WEB-DL Amazon *STARZ*
Видео: 1024x576 at 23.976 fps, High@L4.1, ~2307 kbps
Аудио: AC3; 448 Kbps; 6 channels; 48 KHz

General
Unique ID : 51203563355661591367011571443302620027 (0x268572956DB9EA99298B44D3B0535B7B)
Complete name : F:КиношкаСокровище нации 2_(2007)_WEB_DLRIP-AVC_O.M_[-=DoMiNo=-].mkv
Format : Matroska
Format version : Version 4
File size : 2.45 GiB
Duration : 2 h 4 min
Overall bit rate : 2 811 kb/s
Movie name : Сокровище нации 2: Книга тайн
Deion : Охотник за сокровищами Бен Гейтс, вооружившись поддержкой любимой женщины, верного друга Райли, а также своих родителей, отправляется на поиски затерянного золотого города. Только пройдя сквозь череду невероятных и увлекательных приключений, Бену удастся очистить имя своего предка от обвинений в убийстве Авраама Линкольна. Но не все так просто — параллельные поиски города ведет и некий Митч Уилкинсон, готовый на все ради достижения цели.
Attachments : poster.jpg
ACTORS : Nicolas Cage, Jon Voight, Harvey Keitel, Ed Harris, Diane Kruger, Justin Bartha, Helen Mirren, Bruce Greenwood, Ty Burrell, Albert Hall, Joel Gretsch, Randy Travis, Christian Camargo, Michael Maize, Timothy V. Murphy, Alicia Coppola, Armando Riesco, Brent Briscoe, William Brent, Michael Manuel, Brad Rowe, Troy Winbush, Billy Devlin, Richard Cutting, Zachary Gordon, Peter Woodward, Oliver Muirhead, Larry Cedar, Alicia Leigh Willis, Rachel Cora Wood, Lisa Marie Sheldon, Natalie Dreyfuss, Michael Stone Forrest, David E. Goodman, Susan Lynskey, Patricia DiZebba, Grant Thompson, Frank Herzog, Eric Carlson, Emerson Brooks, Tim Talman, Stephen Hibbert, Emily Joyce, Glenn Beck, Susan Beresford, Demetri Goritsas, C.C. Smiff, David Ury, Peter Miles, Ben Homewood, Michael McCafferty, Hans Georg Struhar
COMPOSER : Trevor Rabin
COUNTRY : United States
DATE : 2007-12-13
DIRECTOR : Jon Turteltaub
GENRE : боевик, приключения, детектив, триллер
ITUNEXTC : mpaa|PG|200|
ORIGINAL_TITLE : National Treasure: Book of Secrets
PRODUCER : Jon Turteltaub, Jerry Bruckheimer
PUBLISHER : Walt Disney Pictures, Jerry Bruckheimer Films, Saturn Films, Junction Entertainment, Sparkler Entertainment, NT2 Productions
RATING : 7.49
WRITER : Cormac Wibberley, Marianne Wibberley, Ted Elliott, Terry Rossio, Gregory Poirier

Video
ID : 1
Format : AVC
Format/Info : Advanced Video Codec
Format profile : High@L4.1
Format settings : CABAC / 12 Ref Frames
Format settings, CABAC : Yes
Format settings, ReFrames : 12 frames
Codec ID : V_MPEG4/ISO/AVC
Duration : 2 h 4 min
Bit rate : 2 307 kb/s
Width : 1 024 pixels
Height : 576 pixels
Display aspect ratio : 16:9
Frame rate mode : Constant
Frame rate : 23.976 (24000/1001) FPS
Color space : YUV
Chroma subsampling : 4:2:0
Bit depth : 8 bits
Scan type : Progressive
Bits/(Pixel*Frame) : 0.163
Stream size : 2.01 GiB (82%)
Title : RIP_BY_-=DoMiNo=-
Writing library : x264 core 157 r2901M 7d0ff22
Encoding settings : cabac=1 / ref=12 / deblock=1:-3:-3 / analyse=0x3:0x133 / me=umh / subme=10 / psy=1 / psy_rd=1.00:0.00 / mixed_ref=1 / me_range=32 / chroma_me=1 / trellis=2 / 8x8dct=1 / cqm=0 / deadzone=21,11 / fast_pskip=1 / chroma_qp_offset=-2 / threads=6 / lookahead_threads=1 / sliced_threads=0 / nr=0 / decimate=1 / interlaced=0 / bluray_compat=0 / constrained_intra=0 / bframes=12 / b_pyramid=2 / b_adapt=2 / b_bias=0 / direct=1 / weightb=1 / open_gop=0 / weightp=2 / keyint=240 / keyint_min=24 / scenecut=40 / intra_refresh=0 / rc=crf / mbtree=0 / crf=19.0 / qcomp=0.70 / qpmin=15 / qpmax=69 / qpstep=4 / ip_ratio=1.40 / pb_ratio=1.30 / aq=1:1.00
Language : English
Default : Yes
Forced : No
Color range : Limited
Color primaries : BT.709
Transfer characteristics : BT.709
Matrix coefficients : BT.709

Audio
ID : 2
Format : AC-3
Format/Info : Audio Coding 3
Commercial name : Dolby Digital
Codec ID : A_AC3
Duration : 2 h 4 min
Bit rate mode : Constant
Bit rate : 448 kb/s
Channel(s) : 6 channels
Channel layout : L R C LFE Ls Rs
Sampling rate : 48.0 kHz
Frame rate : 31.250 FPS (1536 SPF)
Bit depth : 16 bits
Compression mode : Lossy
Stream size : 400 MiB (16%)
Title : Дублированный (Невафильм)
Service kind : Complete Main
Default : Yes
Forced : No

Text #1
ID : 3
Format : UTF-8
Codec ID : S_TEXT/UTF8
Codec ID/Info : UTF-8 Plain Text
Title : RUS
Language : Russian
Default : Yes
Forced : No

Text #2
ID : 4
Format : UTF-8
Codec ID : S_TEXT/UTF8
Codec ID/Info : UTF-8 Plain Text
Title : ENG_[SDH, Amazon]
Language : English
Default : No
Forced : No

Menu
00:00:00.000 : :Глава 1
00:10:10.235 : :Глава 2
00:20:19.635 : :Глава 3
00:20:26.392 : :Глава 4
00:40:24.297 : :Глава 5
00:50:18.849 : :Глава 6
01:00:15.487 : :Глава 7
01:10:24.095 : :Глава 8
01:20:03.590 : :Глава 9
01:30:36.431 : :Глава 10
01:40:15.301 : :Глава 11
01:50:28.163 : :Глава 12


_________________
Проголосуй за трекер Открытый торрент трекер - RUS-MEDIA.ORG

Проголосуй Открытый торрент трекер - RUS-MEDIA.ORG


Скачать книги и аудио книги через торрент


Вернуться к началу
 Профиль Отправить личное сообщение  
 
   Похожие торренты   Автор   Торрент   Размер 
В этой теме нет новых непрочитанных сообщений. Сокровище нации: Книга Тайн / National Treasure: Book of Secrets [боевик, комедия, приключения, 2007] WEB-DL 1080p, Dub [Open Matte]

salma3

0 | 0

11.75 ГБ

В этой теме нет новых непрочитанных сообщений. Сокровище нации: Книга тайн / National Treasure: Book of Secrets [Боевик, приключения, 2007] BDRemux 1080p, Dub

salma3

0 | 0

26.79 ГБ

В этой теме нет новых непрочитанных сообщений. Книга Илая / The Book of Eli [боевик, триллер, драма, 2010] WEB-DLRip-AVC, Dub [Open Matte]

salma3

0 | 0

1.72 ГБ

В этой теме нет новых непрочитанных сообщений. Книга Илая / The Book of Eli [боевик, триллер, драма, 2010] WEB-DL 1080p, Dub [Open Matte]

salma3

0 | 0

7.58 ГБ

В этой теме нет новых непрочитанных сообщений. Сокровище нации / National Treasure [приключения, 2004] BDRemux 1080p, Dub

salma3

0 | 0

29.38 ГБ

В этой теме нет новых непрочитанных сообщений. Пристрели их / Shoot 'Em Up [Боевик, триллер, комедия, 2007] WEB-DLRip-AVC, Dub [Open Matte]

salma3

0 | 0

2.18 ГБ

В этой теме нет новых непрочитанных сообщений. Превосходство Борна / The Bourne Supremacy [боевик, триллер, детектив, 2004] WEB-DLRip-AVC, Dub [Open Matte]

salma3

0 | 0

2.18 ГБ


Начать новую тему Ответить на тему  [ 1 сообщение ] 




Для Мосгорсуда, Роскомнадзора и рекламодателей:: rstracker[собака]yandex.ru
cron
cron