Торрент файл
скачать торрент магнет ссылка Добавлен: 22 апр 2011, 18:29
Размер: 699.13 МБ
Сидеров: 11
Личеров: 5
Автор

СообщениеДобавлено: 22 апр 2011, 18:29 

Не в сети
Супермодератор
Аватара пользователя
Дата регистрации:
22 май 2010, 11:03
Возраст: 31
Спасибо: 7509 / 13
Сообщения: 49940
Огненный шквал / Heat Wave


Перевод: Профессиональный (Многоголосый, закадровый), cубтитры: отсутствуют
Формат: DVDRip, AVI, XviD, MP3
Страна: США
Режиссер: Рекс Пиано
Жанр: драма
Продолжительность: 01:21:58
Год выпуска: 2009
В ролях: Джейми Лунер, Тед Монте, Джэйк Торнтон, Барбара Найвен, Грег Эвиган, Ричард Тэннер, Линн Милано, Роберт Р. Шафер, Дэвид Сторрс

Описание: Мир в опасности! В результате экспериментов по разработке альтернативных видов энергии разрушен озоновый слой Земли. Пары ядовитых газов с огромной скоростью распространяются по планете. Если не предотвратить катастрофу, все живое погибнет через несколько часов…

Рейтинг на IMDB: 3.5/10 Рейтинг фильма на данный момент

Рейтинг на:

Видео: 656x368 (1,8:1), 25 fps, XviD MPEG-4 ~1 055 kbps avg, 0.175 bit/pixel
Аудио: 48 kHz, MPEG Layer 3, 2 ch, ~128 kbps avg



Format: AVI
Format/Info: Audio Video Interleave
File size: 699 MiB
Duration: 1h 21mn
Overall bit rate: 1 193 Kbps
Writing application: VirtualDubMod 1.5.10.2 (build 2540/release)
Writing library: VirtualDubMod build 2540/release

Video
ID: 0
Format: MPEG-4 Visual
Format profile: Advanced Simple@L5
Format settings, BVOP: Yes
Format settings, QPel: No
Format settings, GMC: No warppoints
Format settings, Matrix: Default (MPEG)
Codec ID: XVID
Codec ID/Hint: XviD
Duration: 1h 21mn
Bit rate: 1 055 Kbps
Width: 656 pixels
Height: 368 pixels
Display aspect ratio: 16:9
Frame rate: 25.000 fps
Resolution: 8 bits
Colorimetry: 4:2:0
Scan type: Progressive
Bits/(Pixel*Frame): 0.175
Stream size: 618 MiB (88%)
Writing library: XviD 1.1.2 (UTC 2006-11-01)

Audio
ID: 1
Format: MPEG Audio
Format version: Version 1
Format profile: Layer 3
Format_Settings_Mode: Joint stereo
Format_Settings_ModeExtension: MS Stereo
Codec ID: 55
Codec ID/Hint: MP3
Duration: 1h 21mn
Bit rate mode: Constant
Bit rate: 128 Kbps
Channel(s): 2 channels
Sampling rate: 48.0 KHz
Stream size: 75.0 MiB (11%)
Alignment: Aligned on interleaves
Interleave, duration: 40 ms (1.00 video frame)
Interleave, preload duration: 504 ms
Writing library: LAME3.98 (alpha)










реклама партнёра


Вернуться к началу
 Профиль Отправить личное сообщение  
 
   Похожие торренты   Автор   Торрент   Размер 
В этой теме нет новых непрочитанных сообщений. Белый шквал / White Squall [Драма, приключения, 1996] BDRip 720p, Mvo+Avo+Sub

salma3

10 | 5

6.19 ГБ

В этой теме нет новых непрочитанных сообщений. VA-New Wave Hits Of The '80s (Volumes 1-15) [1998, New Wave, MP3]

PriZraK

0 | 2

1.23 ГБ

В этой теме нет новых непрочитанных сообщений. Женщины за решёткой / Chained Heat [боевик, триллер, драма, 1983] DVDRip, Avo

salma3

24 | 7

1.47 ГБ

В этой теме нет новых непрочитанных сообщений. По ту сторону закона / Dead Heat [Боевик, комедия, драма, криминал, 2002] DVDRip-AVC, Dvo

salma3

15 | 6

1.99 ГБ

В этой теме нет новых непрочитанных сообщений. Комиссар Рекс / Il commissario Rex [S01] [Детектив, комедия, криминал, 2008] DVDRip, Mvo

salma3

3 | 3

2.98 ГБ

В этой теме нет новых непрочитанных сообщений. VA - Осенний шквал супер хитов [Pop, Disco, 2014] MP3, 192-256kbps

Dracon

28 | 4

668.99 МБ

В этой теме нет новых непрочитанных сообщений. Цунами: нет выхода / Tidal Wave: No Escape [драма, катастрофа, 1997] DVDRip, Dvo

salma3

25 | 4

1.49 ГБ


Начать новую тему Ответить на тему  [ 1 сообщение ] 




Для Мосгорсуда, Роскомнадзора и рекламодателей:: mosgorsud-torrent[собачка]yandex.ru