Торрент файл
скачать торрент магнет ссылка Добавлен: 22 апр 2011, 18:29
Размер: 699.13 МБ
Сидеров: 11
Личеров: 5
Автор

СообщениеДобавлено: 22 апр 2011, 18:29 

Не в сети
Супермодератор
Аватара пользователя
Дата регистрации:
22 май 2010, 11:03
Возраст: 33
Спасибо: 7721 / 13
Сообщения: 49847
Огненный шквал / Heat Wave


Перевод: Профессиональный (Многоголосый, закадровый), cубтитры: отсутствуют
Формат: DVDRip, AVI, XviD, MP3
Страна: США
Режиссер: Рекс Пиано
Жанр: драма
Продолжительность: 01:21:58
Год выпуска: 2009
В ролях: Джейми Лунер, Тед Монте, Джэйк Торнтон, Барбара Найвен, Грег Эвиган, Ричард Тэннер, Линн Милано, Роберт Р. Шафер, Дэвид Сторрс

Описание: Мир в опасности! В результате экспериментов по разработке альтернативных видов энергии разрушен озоновый слой Земли. Пары ядовитых газов с огромной скоростью распространяются по планете. Если не предотвратить катастрофу, все живое погибнет через несколько часов…

Рейтинг на IMDB: 3.5/10 Рейтинг фильма на данный момент

Рейтинг на:

Видео: 656x368 (1,8:1), 25 fps, XviD MPEG-4 ~1 055 kbps avg, 0.175 bit/pixel
Аудио: 48 kHz, MPEG Layer 3, 2 ch, ~128 kbps avg



Format: AVI
Format/Info: Audio Video Interleave
File size: 699 MiB
Duration: 1h 21mn
Overall bit rate: 1 193 Kbps
Writing application: VirtualDubMod 1.5.10.2 (build 2540/release)
Writing library: VirtualDubMod build 2540/release

Video
ID: 0
Format: MPEG-4 Visual
Format profile: Advanced Simple@L5
Format settings, BVOP: Yes
Format settings, QPel: No
Format settings, GMC: No warppoints
Format settings, Matrix: Default (MPEG)
Codec ID: XVID
Codec ID/Hint: XviD
Duration: 1h 21mn
Bit rate: 1 055 Kbps
Width: 656 pixels
Height: 368 pixels
Display aspect ratio: 16:9
Frame rate: 25.000 fps
Resolution: 8 bits
Colorimetry: 4:2:0
Scan type: Progressive
Bits/(Pixel*Frame): 0.175
Stream size: 618 MiB (88%)
Writing library: XviD 1.1.2 (UTC 2006-11-01)

Audio
ID: 1
Format: MPEG Audio
Format version: Version 1
Format profile: Layer 3
Format_Settings_Mode: Joint stereo
Format_Settings_ModeExtension: MS Stereo
Codec ID: 55
Codec ID/Hint: MP3
Duration: 1h 21mn
Bit rate mode: Constant
Bit rate: 128 Kbps
Channel(s): 2 channels
Sampling rate: 48.0 KHz
Stream size: 75.0 MiB (11%)
Alignment: Aligned on interleaves
Interleave, duration: 40 ms (1.00 video frame)
Interleave, preload duration: 504 ms
Writing library: LAME3.98 (alpha)









Вернуться к началу
 Профиль Отправить личное сообщение  
 
   Похожие торренты   Автор   Торрент   Размер 
В этой теме нет новых непрочитанных сообщений. Огненный ринг / Cowboy Up [Драма, Мелодрама, Спорт, 2001] WEB-DL 1080p, Mvo

salma3

0 | 0

9.94 ГБ

В этой теме нет новых непрочитанных сообщений. По ту сторону закона / Dead Heat [Боевик, комедия, драма, криминал, 2002] DVDRip-AVC, Dvo

salma3

15 | 6

1.99 ГБ

В этой теме нет новых непрочитанных сообщений. Сборник - Зимний хитовый шквал. Выпуск №9 [Pop, Dance, 2018] MP3 / 256 kpbs

salma3

12 | 0

671.3 МБ

В этой теме нет новых непрочитанных сообщений. Смертельная Схватка / Taking the Heat [боевик, триллер, 1993] DVDRip, Dvo [ОРТ]

salma3

2 | 1

907.29 МБ

В этой теме нет новых непрочитанных сообщений. Полуночная жара / Sunset Heat [Триллер, криминальный боевик, 1992] DVDRip, Dub

salma3

15 | 3

1.72 ГБ

В этой теме нет новых непрочитанных сообщений. Посейдон Рекс / Poseidon Rex [фантастика, боевик, 2013] HDRip, Mvo

salma3

910 | 69

1.37 ГБ

В этой теме нет новых непрочитанных сообщений. Схватка / Heat [Триллер, драма, криминал, 1995] BDRip, Mvo [Remastered]

salma3

0 | 1

2.91 ГБ


Начать новую тему Ответить на тему  [ 1 сообщение ] 




Для Мосгорсуда, Роскомнадзора и рекламодателей:: mosgorsud-torrent[собачка]yandex.ru
cron