Торрент файл
скачать торрент магнет ссылка Добавлен: 22 апр 2011, 17:18
Размер: 1.46 ГБ
Сидеров: 83
Личеров: 8
Автор

СообщениеДобавлено: 22 апр 2011, 17:18 

Не в сети
Супермодератор
Аватара пользователя
Дата регистрации:
22 май 2010, 11:03
Возраст: 31
Спасибо: 7509 / 13
Сообщения: 49940
Графиня / The Countess




Перевод: Профессиональный (полное дублирование)
Cубтитры: Oтсутствуют
Слоган: She sacrificed all for love... and sacrificed others for beauty
Формат: DVDRip, MKV, H.264, AC3

Страна: Германия,Франция.
Режиссер: Жюли Дельпи
Жанр: Биография, Драма, Исторический, Триллер.
Продолжительность: 01:35:40
Год выпуска: 2009

В ролях: Даниэль Брюль, Чарли Хюбнер, Энди Гатьен, Себастьян Бломберг, Уильям Хёрт, Жюли Дельпи, Анамария Маринка, Фредерик Лау, Адриана Альтарас, Мария Зимон

Описание: XVII век. После смерти мужа графиня Елизавета Батори становится владелицей большого родового поместья и солидного состояния. Будучи одной из самых влиятельных и могущественных женщин в Венгрии, она одновременно вызывает у окружающих восхищение, страх и ненависть. Однажды она влюбляется в соблазнительно молодого человека, который значительно моложе ее. Однако, после непродолжительной интрижки, тот оставляет ее. Уверенная в том, что всему виной более молодая и красивая соперница, Елизавета впадает в безумство и полагает, что кровь молодых девственниц способна вернуть ей молодость и красоту.







Видео: 720*432(2,35:1), x264, 25,000 кадр/сек,1695 Кбит/сек, 0.218 Bits/(Pixel*Frame)
Аудио: AC3 CBR,6 канала(ов),48.0 КГц,448 Кбит/сек.

Доп. информация: Рип с лицензионного DVD

D:\Films\Grafinya.mkv
General
Complete name : D:\Films\Grafinya.mkv
Format : Matroska
File size : 1.46 GiB
Duration : 1h 35mn
Overall bit rate : 2 186 Kbps
Movie name : Графиня / The Countess (2009) DVDRip-AVC от FireBit
Encoded date : UTC 2011-01-19 00:25:30
Writing application : mkvmerge v2.3.0 ('Freak U') built on Sep8 2008 18:32:16
Writing library : libebml v0.7.7 + libmatroska v0.8.1
Video #1
ID : 1
Format : AVC
Format/Info : Advanced Video Codec
Format profile :
Format settings, CABAC : Yes
Format settings, ReFrames : 4 frames
Muxing mode : Container profile=Unknown@3.0
Codec ID : V_MPEG4/ISO/AVC
Duration : 1h 35mn
Bit rate : 1 695 Kbps
Width : 720 pixels
Height : 432 pixels
Display aspect ratio : 2.35:1
Original display aspect ratio : 1.667
Frame rate : 25.000 fps
Resolution : 24 bits
Colorimetry : 4:2:0
Scan type : Progressive
Bits/(Pixel*Frame) : 0.218
Stream size : 1.13 GiB (78%)
Title : http://firebit.org
Language : English
Audio #2
ID : 2
Format : AC-3
Format/Info : Audio Coding 3
Codec ID : A_AC3
Duration : 1h 35mn
Bit rate mode : Constant
Bit rate : 448 Kbps
Channel(s) : 6 channels
Channel positions : Front: L C R, Surround: L R, LFE
Sampling rate : 48.0 KHz
Video delay : 16ms
Stream size : 306 MiB (20%)
Title : http://firebit.org
Language : Russian
Text #3
ID : 3
Format : UTF-8
Codec ID : S_TEXT/UTF8
Codec ID/Info : UTF-8 Plain Text
Title : http://firebit.org
Language : English
Text #4
ID : 4
Format : UTF-8
Codec ID : S_TEXT/UTF8
Codec ID/Info : UTF-8 Plain Text
Title : http://firebit.org
Language : Russian
Text #5
ID : 5
Format : UTF-8
Codec ID : S_TEXT/UTF8
Codec ID/Info : UTF-8 Plain Text
Title : http://firebit.org
Language : English










реклама партнёра


Вернуться к началу
 Профиль Отправить личное сообщение  
 
   Похожие торренты   Автор   Торрент   Размер 
В этой теме нет новых непрочитанных сообщений. Графиня из Гонконга / A Countess from Hong Kong [мелодрама, комедия, 1967] BDRip 1080p, Mvo

salma3

59 | 19

7.81 ГБ

В этой теме нет новых непрочитанных сообщений. В центре внимания / Spotlight [Триллер, драма, биография, исторический, 2015] WEB-DLRip, dvo

Dracon

181 | 8

1.45 ГБ

В этой теме нет новых непрочитанных сообщений. В центре внимания / Spotlight [Триллер, драма, биография, исторический, 2015] BDRip-AVC, Mvo+Sub

salma3

1465 | 193

5.21 ГБ

В этой теме нет новых непрочитанных сообщений. Суфражистка / Suffragette [Драма, биография, исторический, 2015] WEB-DRip, dvo

Dracon

25 | 3

1.45 ГБ

В этой теме нет новых непрочитанных сообщений. Освободитель / Libertador (Альберто Арвело) [Драма, Биография, Исторический, 2013] HDRip, Mvo

Dracon

148 | 8

1.46 ГБ

В этой теме нет новых непрочитанных сообщений. Освободитель / Libertador (Альберто Арвело) [Драма, Биография, Исторический, 2013] WEB-DLRip, Mvo

Dracon

181 | 4

2.05 ГБ

В этой теме нет новых непрочитанных сообщений. Королева пустыни / Queen of the Desert [Драма, биография, исторический, 2015] WEB-DLRip, dvo

Dracon

419 | 20

1.4 ГБ


Начать новую тему Ответить на тему  [ 1 сообщение ] 




Для Мосгорсуда, Роскомнадзора и рекламодателей:: mosgorsud-torrent[собачка]yandex.ru