Торрент файл
скачать торрент магнет ссылка Добавлен: 22 апр 2011, 17:18
Размер: 2.18 ГБ
Сидеров: 97
Личеров: 11
Автор

СообщениеДобавлено: 22 апр 2011, 17:18 

Не в сети
Супермодератор
Аватара пользователя
Дата регистрации:
22 май 2010, 11:03
Возраст: 31
Спасибо: 7518 / 13
Сообщения: 49940
Королева Марго / La reine Margot



Перевод: Профессиональный (многоголосый, закадровый)
Субтитры: отсутствуют
Формат: DVDRip, AVI, XviD, MP3
Страна: Германия, Франция, Италия
Режиссер: Патрис Шеро
Жанр: драма, мелодрама, биография, история
Продолжительность: 02:34:51
Год выпуска: 1994

В ролях: Изабелль Аджани, Даниэль Отой, Жан-Юг Англад, Венсан Перес, Вирна Лизи, Доминик Блан, Паскаль Греггори, Клаудио Амендола, Мигель Бозэ, Азия Ардженто

Описание: Август 1572 года. Францию раздирает религиозная война. Чтобы восстановить мир в стране, прекрасная и гордая принцесса Марго, сестра католического короля Карла IX, должна выйти замуж за протестанта Генриха Наваррского. А после свадьбы произошла кровавая резня Варфоломеевской ночи, организованная жестокой и коварной Екатериной Медичи.
Погибли тысячи протестантов, а один из них, тяжело раненный дворянин по имени Ла Моль, в отчаянной попытке спасти свою жизнь постучался в дверь Марго.


Рейтинг на КиноПоиске: 7.819
Рейтинг на IMDB: 7.5/10
Рейтинг на MPAA: R

Видео: 720х384 (1.87:5), 25 fps, XviD MPEG-4 ~1717 kbps avg, 0.248 bit/pixel
Аудио #1: русский 48 kHz, MP3, 2 ch, ~128 kbps avg [Профессиональный (многоголосый закадровый)]
Аудио #2: французский 48 kHz, MP3, 2 ch, ~128 kbps avg [Оригинал]

Доп. информация:
Автор рипа

Награды | Из отзывов…


Общее
Уникальный идентификатор: 180676960753894955157762818472867198181 (0x87ED1DED01A22B7E8B76A5C5D48EF4E5)
Полное имя: T:\Video\Koroleva_Margo.1994.XviD.DVDRip.avi
Формат: Matroska
Размер файла: 2,18 Гбайт
Продолжительность: 2 ч. 34 м.
Общий поток: 2013 Кбит/сек
Дата кодирования: UTC 2011-02-08 02:22:39
Программа кодирования: mkvmerge v3.1.0 ('Happy up here') built on Jan 19 2010 12:09:24
Библиотека кодирования: libebml v0.7.9 + libmatroska v0.8.1

Видео
Идентификатор: 1
Формат: MPEG-4 Visual
Профиль формата: Advanced Simple@L5
Параметр BVOP формата: Да
Параметр QPel формата: Нет
Параметр GMC формата: Без точки перехода
Параметр матрицы формата: Default (MPEG)
Идентификатор кодека: XVID
Идентификатор кодека/Подсказка: XviD
Продолжительность: 2 ч. 34 м.
Битрейт: 1717 Кбит/сек
Ширина: 720 пикс.
Высота: 384 пикс.
Соотношение сторон: 1,875
Частота кадров: 25,000 кадр/сек
Цветовое пространство: YUV
Подвыборка цветности: 4:2:0
Битовая глубина: 8 бит
Тип развёртки: Прогрессивная
Метод сжатия: С потерями
Бит/(Пиксели*Кадры): 0.248
Размер потока: 1,86 Гбайт (85%)
Заголовок: 1994XviD.DVDRip
Библиотека кодирования: XviD 1.2.1 (UTC 2008-12-04)
Язык: French

Аудио #1
Идентификатор: 2
Формат: MPEG Audio
Версия формата: Version 1
Профиль формата: Layer 3
Режим: Joint stereo
Расширение режима: MS Stereo
Идентификатор кодека: A_MPEG/L3
Идентификатор кодека/Подсказка: MP3
Продолжительность: 2 ч. 34 м.
Вид битрейта: Постоянный
Битрейт: 128 Кбит/сек
Канал(ы): 2 канала(ов)
Частота: 48,0 КГц
Метод сжатия: С потерями
Размер потока: 142 Мбайт (6%)
Заголовок: MVO
Библиотека кодирования: LAME3.98r
Настройки программы: -m j -V 4 -q 2 -lowpass 17 -b 128
Язык: Russian

Аудио #2
Идентификатор: 3
Формат: MPEG Audio
Версия формата: Version 1
Профиль формата: Layer 2
Идентификатор кодека: A_MPEG/L2
Идентификатор кодека/Подсказка: MP2
Продолжительность: 2 ч. 34 м.
Вид битрейта: Постоянный
Битрейт: 128 Кбит/сек
Канал(ы): 2 канала(ов)
Частота: 48,0 КГц
Метод сжатия: С потерями
Размер потока: 142 Мбайт (6%)
Заголовок: Original
Язык: French










реклама партнёра


Вернуться к началу
 Профиль Отправить личное сообщение  
 
   Похожие торренты   Автор   Торрент   Размер 
В этой теме нет новых непрочитанных сообщений. Те, кто меня любит, поедут поездом / Ceux qui m'aiment prendront le train (Патрис Шеро / Patrice Chéreau) [1998г., драма, мелодрама, DVDRip] AVO

Alfredovich

7 | 4

1.47 ГБ

В этой теме нет новых непрочитанных сообщений. Марго на свадьбе / Margot at the Wedding (Ноа Баумбах) [2007, Драма, WEB-DL 720] dvo

Nickolas3435

3 | 3

3.39 ГБ

В этой теме нет новых непрочитанных сообщений. Марго на свадьбе / Margot at the Wedding [Драма, 2007] HDTV 1080i, Mvo

salma3

8 | 7

3.38 ГБ

В этой теме нет новых непрочитанных сообщений. Марго на свадьбе / Margot at the Wedding (Ноа Баумбах) [2007, Драма, WEB-DLRip] dvo

Nickolas3435

23 | 3

1.47 ГБ

В этой теме нет новых непрочитанных сообщений. Мария - королева Шотландии / Mary Queen of Scots [драма, биография, история, 2013] BDRip, Mvo [НТВ+]

salma3

11 | 4

2.06 ГБ

В этой теме нет новых непрочитанных сообщений. Иаков. Сразившийся с Ангелом / Jacob [драма, криминал, биография, история, 1994] DVDRip-AVC, Mvo

salma3

30 | 10

1.57 ГБ

В этой теме нет новых непрочитанных сообщений. Мария – королева Шотландии / Mary Queen of Scots [драма, мелодрама, биография, 2013] WEB-DLRip, Mvo

salma3

165 | 10

1.46 ГБ


Начать новую тему Ответить на тему  [ 1 сообщение ] 




Для Мосгорсуда, Роскомнадзора и рекламодателей:: mosgorsud-torrent[собачка]yandex.ru