COVID-19 - Последняя информация о коронавирусе на сайте Минздрава




Торрент файл
скачать торрент магнет ссылка Добавлен: 20 сен 2018, 21:33
Размер: 1.47 ГБ
Сидеров: 0
Личеров: 0
Статус: (salma3)
Автор

СообщениеДобавлено: 20 сен 2018, 21:33 

Не в сети
Супермодератор
Аватара пользователя
Дата регистрации:
15 фев 2012, 16:44
Возраст: 31
Спасибо: 8273 / 2148
Сообщения: 96527
Страна: США
Жанр: Драма
Год выпуска: 1978
Продолжительность: 01:59:59
Режиссер: Дэниел Питри
В ролях: Лоуренс Оливье, Роберт Дювалл, Кэтрин Росс, Томми Ли Джонс, Джейн Александр, Лесли-Энн Даун, Джозеф Уайзмен, Кэтлин Бэллер, Эдвард Херрманн, Пол Радд
Описание: Автомобильного магната, ушедшего от дел Лорена Хардемэна-старшего, основателя автозавода Бетлехем Мотор, теперь его интересует только создание революционной машины — слишком эффективной, слишком практичной и слишком подходящей для Американской промышленности. Машина должна получить имя Бетси в честь его праправнучки.
Исходник: DVD9 R1
Тип релиза: DVDRip
Перевод:
Контейнер: AVI
Видео: 720x400 (1.80:1), 25 fps, XviD MPEG-4 ~1357 kbps avg, 0.19 bit/pixel
Аудио 1: 48 kHz, AC3 Dolby Digital, 1/0 (L,R) ch, ~192 kbps (русский)
Аудио 2: 48 kHz, AC3 Dolby Digital, 2/0 (L,R) ch, ~192 kbps (английский)



Общее
Полное имя : G:ААА2Бетси.avi
Формат : AVI
Формат/Информация : Audio Video Interleave
Размер файла : 1,47 Гбайт
Продолжительность : 1 ч. 59 м.
Общий поток : 1757 Кбит/сек
Программа кодирования : VirtualDubMod 1.5.10.2 (build 2540/release)
Библиотека кодирования : VirtualDubMod build 2540/release

Видео
Идентификатор : 0
Формат : MPEG-4 Visual
Профиль формата : Advanced Simple@L5
Параметр BVOP формата : 2
Параметр QPel формата : Нет
Параметр GMC формата : Без точки перехода
Параметр матрицы формата : Default (MPEG)
Режим смешивания : Сжатый битовый поток
Идентификатор кодека : XVID
Идентификатор кодека/Подсказка : XviD
Продолжительность : 1 ч. 59 м.
Битрейт : 1359 Кбит/сек
Ширина : 720 пикселей
Высота : 400 пикселей
Соотношение сторон : 16:9
Частота кадров : 25,000 кадров/сек
Цветовое пространство : YUV
Субдискретизация насыщенности : 4:2:0
Битовая глубина : 8 бит
Тип развёртки : Прогрессивная
Метод сжатия : С потерями
Бит/(Пиксели*Кадры) : 0.189
Размер потока : 1,14 Гбайт (77%)
Библиотека кодирования : XviD 1.2.1 (UTC 2008-12-04)

Аудио #1
Идентификатор : 1
Формат : AC-3
Формат/Информация : Audio Coding 3
Расширение режима : CM (complete main)
Параметр Endianness формата : Big
Идентификатор кодека : 2000
Продолжительность : 1 ч. 59 м.
Вид битрейта : Постоянный
Битрейт : 192 Кбит/сек
Каналы : 1 канал
Расположение каналов : Front: C
Частота : 48,0 КГц
Битовая глубина : 16 бит
Метод сжатия : С потерями
Задержка видео : 9 мс.
Размер потока : 165 Мбайт (11%)
Выравнивание : Разделение по промежуткам
Продолжительность промежутка : 40 мс. (1,00 видеокадр)
Время предзагрузки промежутка : 500 мс.

Аудио #2
Идентификатор : 2
Формат : AC-3
Формат/Информация : Audio Coding 3
Расширение режима : CM (complete main)
Параметр Endianness формата : Big
Идентификатор кодека : 2000
Продолжительность : 1 ч. 59 м.
Вид битрейта : Постоянный
Битрейт : 192 Кбит/сек
Каналы : 2 канала
Расположение каналов : Front: L R
Частота : 48,0 КГц
Битовая глубина : 16 бит
Метод сжатия : С потерями
Размер потока : 165 Мбайт (11%)
Выравнивание : Разделение по промежуткам
Продолжительность промежутка : 40 мс. (1,00 видеокадр)
Время предзагрузки промежутка : 500 мс.



Релиз:


_________________
Проголосуй за трекер Открытый торрент трекер - RUS-MEDIA.ORG

Проголосуй Открытый торрент трекер - RUS-MEDIA.ORG


Скачать книги и аудио книги через торрент


Вернуться к началу
 Профиль Отправить личное сообщение  
 
   Похожие торренты   Автор   Торрент   Размер 
В этой теме нет новых непрочитанных сообщений. Моя маленькая Бетси / My little Betsy (2020) CAMRip 1080p

zorgi

114 | 4

218.82 МБ

В этой теме нет новых непрочитанных сообщений. Портрет буржуазии в черном / Ritratto di borghesia in nero [драма, 1978] DVDRip, Dvo

salma3

0 | 0

1.59 ГБ

В этой теме нет новых непрочитанных сообщений. Гороскоп / L'horoscope [комедия, 1978] DVDRip, Dvo

salma3

0 | 0

1.37 ГБ

В этой теме нет новых непрочитанных сообщений. Жеребец / The Stud [драма, мелодрама, 1978] BDRip, Dvo

salma3

0 | 1

1.46 ГБ

В этой теме нет новых непрочитанных сообщений. Вопль / The Shout [Драма, мистика, 1978] BDRip, Dvo

salma3

1 | 1

1.46 ГБ

В этой теме нет новых непрочитанных сообщений. Пальцы / Fingers [Криминальная драма, 1978] DVD5, Dvo

salma3

0 | 0

4.12 ГБ

В этой теме нет новых непрочитанных сообщений. Тридцать девять ступеней / The Thirty-Nine Steps [криминал, детектив, история, 1978] DVDRip, Dvo

salma3

0 | 0

1.46 ГБ


Начать новую тему Ответить на тему  [ 1 сообщение ] 




Для Мосгорсуда, Роскомнадзора и рекламодателей:: rstracker[собака]yandex.ru
cron