COVID-19 - Последняя информация о коронавирусе на сайте Минздрава




Торрент файл
скачать торрент магнет ссылка Добавлен: 03 сен 2018, 11:17
Размер: 1.46 ГБ
Сидеров: 0
Личеров: 0
Статус: (salma3)
Автор

СообщениеДобавлено: 03 сен 2018, 11:17 

Не в сети
Супермодератор
Аватара пользователя
Дата регистрации:
15 фев 2012, 16:44
Возраст: 31
Спасибо: 8281 / 2148
Сообщения: 96721
Год выхода: 2018
Жанр: мелодрама, комедия
Режиссер: Винс Марселло

В ролях: Джои Кинг, Джейкоб Элорди, Молли Рингуолд, Джоэл Кортни, Фрэнсис Шолто-Дуглас, Меган Янг, Нэйтан Линн, Робби Такер, Джессика Саттон, Морн Виссер и другие

О фильме:
Старшеклассница Эль — общительная, милая, но еще не испытавшая прелести поцелуев девушка. Ной — старший брат ее лучшего друга — дерзкий и ветреный, разбивший не одно девичье сердце. Решив однажды поучаствовать в «Будке поцелуев» на осеннем карнавале, Эль даже представить не могла, что подарит свой первый поцелуй Ною, и её жизнь изменится до неузнаваемости.



Страна: Великобритания / Komixx Entertainment
Продолжительность: 01:45:03
Перевод: Профессиональный (многоголосый, закадровый) Jaskier

Файл
Формат: AVI
Качество: WEBRip
Видео: XviD, 704x320, 23.976 fps, 1594 kbps
Звук: AC3, 6 ch, 384 kbps



Общее
Полное имя : D:ЯскъерThe.Kissing.Booth.2018.NF.XviD.WEBRip.Jaskier.avi
Формат : AVI
Формат/Информация : Audio Video Interleave
Размер файла : 1,46 Гбайт
Продолжительность : 1 ч. 45 м.
Общий поток : 1987 Кбит/сек
Программа кодирования : VirtualDubMod 1.5.10.3 | http://www.virtualdub-fr.org || (build 2550/release)
Библиотека кодирования : VirtualDubMod build 2550/release

Видео
Идентификатор : 0
Формат : MPEG-4 Visual
Профиль формата : Advanced Simple@L5
Настройки формата : BVOP1 / Custom Matrix
Параметр BVOP формата : 1
Параметр QPel формата : Нет
Параметр GMC формата : Без точки перехода
Параметр матрицы формата : Выборочная
Идентификатор кодека : XVID
Идентификатор кодека/Подсказка : XviD
Продолжительность : 1 ч. 45 м.
Битрейт : 1594 Кбит/сек
Ширина : 704 пикселя
Высота : 320 пикселей
Соотношение сторон : 2,2:1
Частота кадров : 23,976 (24000/1001) кадра/сек
Частота кадров в оригинале : 23,976 (23976/1000) кадра/сек
Цветовое пространство : YUV
Субдискретизация насыщенности : 4:2:0
Битовая глубина : 8 бит
Тип развёртки : Прогрессивная
Метод сжатия : С потерями
Бит/(Пиксели*Кадры) : 0.295
Размер потока : 1,17 Гбайт (80%)
Библиотека кодирования : XviD 73

Аудио
Идентификатор : 1
Формат : AC-3
Формат/Информация : Audio Coding 3
Идентификатор кодека : 2000
Продолжительность : 1 ч. 45 м.
Вид битрейта : Постоянный
Битрейт : 384 Кбит/сек
Каналы : 6 каналов
Расположение каналов : Front: L C R, Side: L R, LFE
Частота : 48,0 КГц
Частота кадров : 31,250 кадров/сек (1536 SPF)
Битовая глубина : 16 бит
Метод сжатия : С потерями
Размер потока : 289 Мбайт (19%)
Выравнивание : Разделение по промежуткам
Продолжительность промежутка : 42 мс. (1,00 видеокадр)
Время предзагрузки промежутка : 500 мс.


Релиз от: JASKiER


_________________
Проголосуй за трекер Открытый торрент трекер - RUS-MEDIA.ORG

Проголосуй Открытый торрент трекер - RUS-MEDIA.ORG


Скачать книги и аудио книги через торрент


Вернуться к началу
 Профиль Отправить личное сообщение  
 
   Похожие торренты   Автор   Торрент   Размер 
В этой теме нет новых непрочитанных сообщений. Будка поцелуев / The Kissing Booth [мелодрама, комедия, 2018] WEBRip 720p, Mvo [Jaskier]

salma3

0 | 0

3.44 ГБ

В этой теме нет новых непрочитанных сообщений. Будка поцелуев / The Kissing Booth [мелодрама, комедия, 2018] WEBRip 720p, Mvo

salma3

83 | 40

2.67 ГБ

В этой теме нет новых непрочитанных сообщений. Будка поцелуев / The Kissing Booth [мелодрама, комедия, 2018] WEB-DLRip, Mvo

salma3

147 | 27

1.46 ГБ

В этой теме нет новых непрочитанных сообщений. Будка поцелуев / The Kissing Booth [Мелодрама, комедия, 2018] WEB-DL 1080p, Mvo

salma3

40 | 20

3.76 ГБ

В этой теме нет новых непрочитанных сообщений. Будка поцелуев / The Kissing Booth [Мелодрама, комедия, 2018] WEB-DLRip AVC, Mvo

salma3

13 | 6

1.46 ГБ

В этой теме нет новых непрочитанных сообщений. Подстава / Set It Up [Мелодрама, комедия, 2018] WEBRip, Mvo [Jaskier]

salma3

0 | 0

1.46 ГБ

В этой теме нет новых непрочитанных сообщений. Подстава / Set It Up [Мелодрама, комедия, 2018] WEBRip 720p, Mvo [Jaskier]

salma3

25 | 6

3.49 ГБ


Начать новую тему Ответить на тему  [ 1 сообщение ] 




Для Мосгорсуда, Роскомнадзора и рекламодателей:: rstracker[собака]yandex.ru
cron