Торрент файл
скачать торрент магнет ссылка Добавлен: 21 апр 2011, 23:20
Размер: 759.43 МБ
Сидеров: 6
Личеров: 7
Автор

СообщениеДобавлено: 21 апр 2011, 23:20 

Не в сети
Супермодератор
Аватара пользователя
Дата регистрации:
22 май 2010, 11:03
Возраст: 31
Спасибо: 7509 / 13
Сообщения: 49940
Рождественская пятерка / Santa Buddies



Перевод: Профессиональный (полное дублирование), cубтитры: есть (русские, английские)

Слоган: «The Buddies Are Coming To Town!»

Формат: LowHDRip-AVC, MKV, H.264, MP3
Страна: США, Канада
Режиссер: Роберт Винс
Жанр: Приключения, семейный, рождественская сказка
Продолжительность: 01:28:32
Год выпуска: 2009

В ролях: Крэйг Энтон, Эндрю Эспозито, Черисс Бэйкер, Том Босли, Филд Кейт, Тим Конуэй, Крис Коппола, Джош Флиттер, Нико Гиси, Бен Жиро, Скайлер Джизондо, Захари Гордон, Райан Грэнтхем, Элли Харви, Ричард Кайнд, Кристофер Ллойд, Куинн Лорд, София Людвиг, Kaitlyn Maher, Isabella Montes, Гиг Мортон

Описание: Неповторимая история о волшебной Рождественской Сосульке, которая в канун Рождества начинает таять, и о том, как отважные говорящие щенки будут делать все возможное, чтобы сохранить Рождество!

Рейтинг на IMDB: 4.1/10
Рейтинг на Кинопоиск.RU: 5.652
Рейтинг MPAA: G

Видео: 720x404 (1.782), 23.976 fps, MPEG4 AVC (x264) , ~1066 kbps avg, 0.152 bit/pixel
Аудио: 44.1 KHz KHz, MPEG Layer 3, 2 ch, ~112 kbps avg

Дополнительная информация:
премьера (мир) = 18 ноября 2009

Video #1
ID : 1
Format : AVC
Format/Info : Advanced Video Codec
Format profile :
Format settings, CABAC : Yes
Format settings, ReFrames : 7 frames
Muxing mode : Container profile=Unknown@4.1
Codec ID : V_MPEG4/ISO/AVC
Duration : 1h 28mn
Bit rate : 1 063 Kbps
Nominal bit rate : 1 085 Kbps
Width : 720 pixels
Height : 404 pixels
Display aspect ratio : 16:9
Frame rate : 23.976 fps
Resolution : 24 bits
Colorimetry : 4:2:0
Scan type : Progressive
Bits/(Pixel*Frame) : 0.152
Stream size : 673 MiB (89%)
Writing library : x264 core 78 r1310kMod ec46ace
Encoding settings : cabac=1 / ref=7 / deblock=1:-2:-1 / analyse=0x3:0x113 / me=umh / subme=10 / psy=1 / psy_rd=1.0:0.2 / mixed_ref=1 / me_range=24 / chroma_me=1 / trellis=2 / 8x8dct=1 / cqm=0 / deadzone=21,11 / chroma_qp_offset=-3 / threads=3 / nr=0 / decimate=1 / mbaff=0 / constrained_intra=0 / bframes=6 / b_pyramid=0 / b_adapt=2 / b_bias=0 / direct=3 / wpredb=1 / keyint=250 / keyint_min=25 / scenecut=45 / rc_lookahead=40 / rc=2pass / mbtree=1 / bitrate=1085 / ratetol=1.0 / qcomp=0.65 / qpmin=10 / qpmax=51 / qpstep=4 / cplxblur=20.0 / qblur=0.5 / vbv_maxrate=50000 / vbv_bufsize=62500 / ip_ratio=1.40 / aq=2:1.00:1.00
Language : English
matrix_coefficients : BT.709-5, BT.1361, IEC 61966-2-4 709, SMPTE RP177
Audio #2
ID : 2
Format : MPEG Audio
Format version : Version 1
Format profile : Layer 3
Codec ID : A_MPEG/L3
Codec ID/Hint : MP3
Duration : 1h 28mn
Bit rate mode : Constant
Bit rate : 112 Kbps
Channel(s) : 2 channels
Sampling rate : 44.1 KHz
Resolution : 16 bits
Stream size : 70.9 MiB (9%)
Writing library : LAME3.98r
Encoding settings : -m s -V 4 -q 2 -lowpass 15.6 -b 112
Text #3
ID : 3
Format : UTF-8
Codec ID : S_TEXT/UTF8
Codec ID/Info : UTF-8 Plain Text
Title : ru
Text #4
ID : 4
Format : UTF-8
Codec ID : S_TEXT/UTF8
Codec ID/Info : UTF-8 Plain Text
Title : eng








реклама партнёра


Вернуться к началу
 Профиль Отправить личное сообщение  
 
   Похожие торренты   Автор   Торрент   Размер 
В этой теме нет новых непрочитанных сообщений. Новая рождественская сказка / Scrooged [фэнтези, драма, комедия, 1988] HDRip, Mvo

salma3

66 | 7

1.46 ГБ

В этой теме нет новых непрочитанных сообщений. Рождественская звезда / A Christmas Star [семейный, 2015] HDRip, AVO

salma3

100 | 10

1.15 ГБ

В этой теме нет новых непрочитанных сообщений. Рождественская история / Joulutarina [фэнтези, драма, семейный, 2007] BDRip 720p, Mvo

salma3

125 | 4

4.48 ГБ

В этой теме нет новых непрочитанных сообщений. Рождественская история 2 / A Christmas Story 2 [Комедия, 2012] HDRip,, Mvo

salma3

190 | 16

1.37 ГБ

В этой теме нет новых непрочитанных сообщений. Рождественская ночь в Барселоне / Barcelona, nit d'hivern [Мелодрама, 2015] WEB-DLRip, Dub [iTunes]

Dracon

1149 | 103

1.46 ГБ

В этой теме нет новых непрочитанных сообщений. Рождественская мелодия / A Christmas Melody [Комедия, музыка, 2015] WEB-DLRip, Mvo [iTunes]

salma3

0 | 0

744.15 МБ

В этой теме нет новых непрочитанных сообщений. Рождественская свадьба / A Christmas Wedding Date [мелодрама, комедия, 2012] DVDRip, Mvo

salma3

6 | 2

1.37 ГБ


Начать новую тему Ответить на тему  [ 1 сообщение ] 




Для Мосгорсуда, Роскомнадзора и рекламодателей:: mosgorsud-torrent[собачка]yandex.ru