Торрент файл
скачать торрент магнет ссылка Добавлен: 21 апр 2011, 23:19
Размер: 751.17 МБ
Сидеров: 31
Личеров: 7
Автор

СообщениеДобавлено: 21 апр 2011, 23:19 

Не в сети
Супермодератор
Аватара пользователя
Дата регистрации:
22 май 2010, 11:03
Возраст: 31
Спасибо: 7509 / 13
Сообщения: 49940
Рождественская история / Joulutarina



Перевод: Профессиональный (многоголосый, закадровый), cубтитры: есть
Формат: LowHDRip-AVC, MKV, H.264, AC3
Страна: Финляндия
Режиссер: Юха Вуолийоки
Жанр: Рождественская сказка, семейный
Продолжительность: 01:17:07
Год выпуска: 2007

В ролях: Ханну-Пекка Бьоркман / Hannu-Pekka Björkman /, Отто Густавссон / Otto Gustavsson /, Кари Ваананен / Kari Väänänen /, Микко Леппилампи / Mikko Leppilampi /, Минна Хаапкюля / Minna Haapkylä /

Описание: Очень давно в Лапландии у мальчика по имени Николас трагически погибают родители. Жители деревни решают взять его на свое попечение. В каждой семье о нем заботятся на протяжении года. На каждое Рождество его берет к себе новая семья. В благодарность Николас перед уходом дарит детям прощальные подарки — самодельные игрушки. После голодного года жители вынуждены отдать мальчика на воспитание в отдаленный хутор, где ему приходится жить и работать у старого раздражительного плотника, который запрещает ему делать подарки на Рождество... Традиция рождественских подарков могла прерваться уже тогда. Но, к счастью, Николас придумал как сделать так, чтобы каждый год на Рождество дети и взрослые получали подарки.

Рейтинг на IMDB: 6.8/10
Рейтинг на Кинопоиск.RU: 7.373
Рейтинг MPAA: PG

Видео: 720x304 (2.35:1), 25 fps, MPEG4 AVC (x264) , ~1175 kbps avg, 0.215 bit/pixel
Аудио: 44.1 KHz KHz, AC3, 2 ch, ~160 kbps avg

Дополнительная информация:
бюджет = ?2 500 000

Video #1
ID : 1
Format : AVC
Format/Info : Advanced Video Codec
Format profile :
Format settings, CABAC : Yes
Format settings, ReFrames : 7 frames
Muxing mode : Container profile=Unknown@4.1
Codec ID : V_MPEG4/ISO/AVC
Duration : 1h 17mn
Bit rate : 1 175 Kbps
Nominal bit rate : 1 200 Kbps
Width : 720 pixels
Height : 304 pixels
Display aspect ratio : 2.35:1
Frame rate : 25.000 fps
Resolution : 24 bits
Colorimetry : 4:2:0
Scan type : Progressive
Bits/(Pixel*Frame) : 0.215
Stream size : 648 MiB (86%)
Writing library : x264 core 78 r1310kMod ec46ace
Encoding settings : cabac=1 / ref=7 / deblock=1:-2:-1 / analyse=0x3:0x113 / me=umh / subme=10 / psy=1 / psy_rd=1.0:0.2 / mixed_ref=1 / me_range=24 / chroma_me=1 / trellis=2 / 8x8dct=1 / cqm=0 / deadzone=21,11 / chroma_qp_offset=-3 / threads=3 / nr=0 / decimate=1 / mbaff=0 / constrained_intra=0 / bframes=6 / b_pyramid=0 / b_adapt=2 / b_bias=0 / direct=3 / wpredb=1 / keyint=250 / keyint_min=25 / scenecut=45 / rc_lookahead=40 / rc=2pass / mbtree=1 / bitrate=1200 / ratetol=1.0 / qcomp=0.65 / qpmin=10 / qpmax=51 / qpstep=4 / cplxblur=20.0 / qblur=0.5 / vbv_maxrate=50000 / vbv_bufsize=62500 / ip_ratio=1.40 / aq=2:1.00:1.00
Language : English
matrix_coefficients : BT.709-5, BT.1361, IEC 61966-2-4 709, SMPTE RP177
Audio #2
ID : 2
Format : AC-3
Format/Info : Audio Coding 3
Codec ID : A_AC3
Duration : 1h 17mn
Bit rate mode : Constant
Bit rate : 160 Kbps
Channel(s) : 2 channels
Channel positions : L R
Sampling rate : 48.0 KHz
Stream size : 88.3 MiB (12%)
Text #3
ID : 3
Format : UTF-8
Codec ID : S_TEXT/UTF8
Codec ID/Info : UTF-8 Plain Text
Title : fin
Text #4
ID : 4
Format : UTF-8
Codec ID : S_TEXT/UTF8
Codec ID/Info : UTF-8 Plain Text
Title : eng








реклама партнёра


Вернуться к началу
 Профиль Отправить личное сообщение  
 
   Похожие торренты   Автор   Торрент   Размер 
В этой теме нет новых непрочитанных сообщений. Рождественская история / Joulutarina [фэнтези, драма, семейный, 2007] BDRip 720p, Mvo

salma3

125 | 4

4.48 ГБ

В этой теме нет новых непрочитанных сообщений. Новая рождественская сказка / Scrooged [фэнтези, драма, комедия, 1988] HDRip, Mvo

salma3

66 | 7

1.46 ГБ

В этой теме нет новых непрочитанных сообщений. Рождественская история 2 / A Christmas Story 2 [Комедия, 2012] HDRip,, Mvo

salma3

190 | 16

1.37 ГБ

В этой теме нет новых непрочитанных сообщений. Рождественская звезда / A Christmas Star [семейный, 2015] HDRip, AVO

salma3

100 | 10

1.15 ГБ

В этой теме нет новых непрочитанных сообщений. Страшная рождественская история / A Christmas Horror Story (Грант Харви, Стивен Хобан) [Ужасы, 2015] WEB-DL 720p, dvo

Dracon

823 | 53

3.15 ГБ

В этой теме нет новых непрочитанных сообщений. Ледяная угроза: Рождественская история / Icetastrophe: Christmas Icetastrophe (Джонатан Уинфри) [2014, Фантастика, катастрофа, SATRip-AVC] mvo

Nickolas3435

320 | 17

1.36 ГБ

В этой теме нет новых непрочитанных сообщений. Рождественская свадьба / A Christmas Wedding Date [мелодрама, комедия, 2012] DVDRip, Mvo

salma3

6 | 2

1.37 ГБ


Начать новую тему Ответить на тему  [ 1 сообщение ] 




Для Мосгорсуда, Роскомнадзора и рекламодателей:: mosgorsud-torrent[собачка]yandex.ru