Торрент файл
скачать торрент магнет ссылка Добавлен: 17 авг 2018, 21:24
Размер: 1.44 ГБ
Сидеров: 0
Личеров: 0
Статус: (salma3)
Автор

СообщениеДобавлено: 17 авг 2018, 21:24 

Не в сети
Супермодератор
Аватара пользователя
Дата регистрации:
15 фев 2012, 16:44
Возраст: 29
Спасибо: 7328 / 2147
Сообщения: 73737
Страна: США
Жанр: Мистический триллер
Год выпуска: 2002
Продолжительность: 01:59:09

Перевод: Авторский (одноголосый закадровый) Сергей Визгунов
Режиссер: Марк Пеллингтон / Mark Pellington

В ролях: Ричард Гир, Лора Линни, Уилл Пэттон, Дэвид Эйгенберг, Дебра Мессинг, Люсинда Дженни, Несбитт Блэйсделл, Алан Бейтс, Боб Трэйси, Рон Эмануэл

Описание: Спустя два года после трагической гибели жены, журналист Джон Клайн оказывается в маленьком городке в Западной Вирджинии. Удивительные рассказы местных жителей, видевших странное существо, являющееся людям в сумраке ночи, и становящееся предвестником чудовищных трагедий, похожее на гигантского человека-мотылька, вынуждают его начать собственное расследование, которое даёт совершенно неожиданные результаты…



Качество видео: BDRip (Исходник: Гость / BDRemux 1080p)
Формат видео: AVI

Видео: 720x304 (2.37:1), 23.976 fps, XviD build 64 ~1294 kbps avg, 0.25 bit/pixel
Аудио 1: AC3 Dolby Digital, 48000Hz, 2/0 (L,R) ch (mono), 192.00 kbps avg | Сергей Визгунов
Аудио 2: AC3 Dolby Digital, 48000Hz, 2/0 (L,R) ch (stereo), 224.00 kbps avg | Eng
Человек-мотылек - The Mothman Prophecies [by ale_x2008].avi
Format : AVI
Format/Info : Audio Video Interleave
File size : 1.44 GiB
Duration : 1h 59mn
Overall bit rate : 1 725 Kbps
Movie name : Человек-мотылек - The Mothman Prophecies [by ale_x2008]
Director : by ale_x2008
Writing application : VirtualDubMod 1.5.10.2 (build 2540/release)
Copyright : Edich2

Video
ID : 0
Format : MPEG-4 Visual
Format profile : Advanced Simple@L5
Format settings, BVOP : 2
Format settings, QPel : No
Format settings, GMC : No warppoints
Format settings, Matrix : Custom
Codec ID : XVID
Codec ID/Hint : XviD
Duration : 1h 59mn
Bit rate : 1 295 Kbps
Width : 720 pixels
Height : 304 pixels
Display aspect ratio : 2.35:1
Frame rate : 23.976 (23976/1000) fps
Color space : YUV
Chroma subsampling : 4:2:0
Bit depth : 8 bits
Scan type : Progressive
Compression mode : Lossy
Bits/(Pixel*Frame) : 0.247
Stream size : 1.08 GiB (75%)
Writing library : XviD 64

Audio #1
ID : 1
Format : AC-3
Format/Info : Audio Coding 3
Mode extension : CM (complete main)
Format settings, Endianness : Big
Codec ID : 2000
Duration : 1h 59mn
Bit rate mode : Constant
Bit rate : 192 Kbps
Channel(s) : 2 channels
Channel positions : Front: L R
Sampling rate : 48.0 KHz
Frame rate : 31.250 fps (1536 spf)
Compression mode : Lossy
Stream size : 164 MiB (11%)
Alignment : Split accross interleaves
Interleave, duration : 42 ms (1.00 video frame)
Interleave, preload duratio : 500 ms

Audio #2
ID : 2
Format : AC-3
Format/Info : Audio Coding 3
Mode extension : CM (complete main)
Format settings, Endianness : Big
Codec ID : 2000
Duration : 1h 59mn
Bit rate mode : Constant
Bit rate : 224 Kbps
Channel(s) : 2 channels
Channel positions : Front: L R
Sampling rate : 48.0 KHz
Frame rate : 31.250 fps (1536 spf)
Compression mode : Lossy
Stream size : 191 MiB (13%)
Alignment : Split accross interleaves
Interleave, duration : 42 ms (1.00 video frame)
Interleave, preload duratio : 500 ms





_________________
Проголосуй за трекер Открытый торрент трекер - RUS-MEDIA.ORG

Проголосуй Открытый торрент трекер - RUS-MEDIA.ORG


Вернуться к началу
 Профиль Отправить личное сообщение  
 
   Похожие торренты   Автор   Торрент   Размер 
В этой теме нет новых непрочитанных сообщений. Человек-мотылек / The Mothman Prophecies [Триллер, драма, реальные события, экранизация, 2002] BDRip 720p, Dub+Avo+Mvo+Sub

salma3

96 | 33

7.49 ГБ

В этой теме нет новых непрочитанных сообщений. Человек-мотылек / The Mothman Prophecies [Ужасы, триллер, драма, 2002] BDRemux 1080p | D, P, A

salma3

0 | 0

19.33 ГБ

В этой теме нет новых непрочитанных сообщений. Готика / Gothika [Мистический триллер, ужасы, 2003] BDRip 1080p, Dub

salma3

0 | 0

11.14 ГБ

В этой теме нет новых непрочитанных сообщений. Человек с поезда / L'homme du train [философская драма, 2002] BDRip 720p, Mvo

salma3

65 | 11

4.82 ГБ

В этой теме нет новых непрочитанных сообщений. Мотылек / Papillon [драма, криминал, биография, 1973] BDRip 720p, Mvo

salma3

0 | 0

7.9 ГБ

В этой теме нет новых непрочитанных сообщений. Мотылек / Papillon [драма, криминал, биография, 1973] BDRip 720p, Mvo

salma3

0 | 0

12.66 ГБ

В этой теме нет новых непрочитанных сообщений. Плетеный человек / The Wicker Man [ужасы, триллер, драма, 1973] BDRip-AVC, Dvo

salma3

7 | 2

2.86 ГБ


Начать новую тему Ответить на тему  [ 1 сообщение ] 




Для Мосгорсуда, Роскомнадзора и рекламодателей:: mosgorsud-torrent[собачка]yandex.ru
cron