Торрент файл
скачать торрент магнет ссылка Добавлен: 14 авг 2018, 10:49
Размер: 1.46 ГБ
Сидеров: 0
Личеров: 0
Статус: (salma3)
Автор

СообщениеДобавлено: 14 авг 2018, 10:49 

Не в сети
Супермодератор
Аватара пользователя
Дата регистрации:
15 фев 2012, 16:44
Возраст: 29
Спасибо: 7328 / 2147
Сообщения: 73737
Год выпуска: 1996
Жанр: фэнтези, драма, комедия
Режиссер: Нора Эфрон / Nora Ephron

В ролях: Джон Траволта, Энди МакДауэлл, Уильям Хёрт, Боб Хоскинс, Роберт Пасторелли, Жан Степлтон, Тери Гарр, Уоллес Лэнгэм, Джои Лорен Эдамс, Карла Гуджино.

Описание: Его зовут Майкл. Он живет где-то в захолустье, в прогорающем мотеле посреди штата Айова. Он любитель выпивки, женщин и праздной жизни. Он просто ангел... Не верите? У него, как и положено, есть крылья.



Страна: США
Продолжительность: 01:40:30
Перевод: Профессиональный (двухголосый закадровый) [НТВ]

Качество: HDTVRip
Видео: 704x400 (1.76:1), 23.976 fps, XviD build 73 ~1873 kbps avg, 0.28 bit/pixel
Аудио: 48 kHz, AC3 Dolby Digital, 2/0 (L,R) ch, ~192 kbps



D:Мои рипыMichael.1996.hdtvrip.dexter_lex.avi
General
Complete name : D:Мои рипыMichael.1996.hdtvrip.dexter_lex.avi
Format : AVI
Format/Info : Audio Video Interleave
File size : 1.46 GiB
Duration : 1h 40mn
Overall bit rate : 2 075 Kbps
Movie name : Michael.1996.hdtvrip.dexter_lex
Director : dexter lex
Writing application : VirtualDubMod 1.5.10.3 | http://www.virtualdub-fr.org || (build 2550/release)
Video #0
ID : 0
Format : MPEG-4 Visual
Format profile : Advanced Simple@L5
Format settings, BVOP : 1
Format settings, QPel : No
Format settings, GMC : No warppoints
Format settings, Matrix : Custom
Codec ID : XVID
Codec ID/Hint : XviD
Duration : 1h 40mn
Bit rate : 1 874 Kbps
Width : 704 pixels
Height : 400 pixels
Display aspect ratio : 16:9
Frame rate : 23.976 fps
Color space : YUV
Chroma subsampling : 4:2:0
Bit depth : 8 bits
Scan type : Progressive
Compression mode : Lossy
Bits/(Pixel*Frame) : 0.278
Stream size : 1.32 GiB (90%)
Writing library : XviD 73
Audio #1
ID : 1
Format : AC-3
Format/Info : Audio Coding 3
Mode extension : CM (complete main)
Codec ID : 2000
Duration : 1h 40mn
Bit rate mode : Constant
Bit rate : 192 Kbps
Channel(s) : 2 channels
Channel positions : Front: L R
Sampling rate : 48.0 KHz
Bit depth : 16 bits
Compression mode : Lossy
Stream size : 138 MiB (9%)
Alignment : Split accross interleaves
Interleave, duration : 42 ms (1.00 video frame)
Interleave, preload duration : 500 ms


Раздача от:


_________________
Проголосуй за трекер Открытый торрент трекер - RUS-MEDIA.ORG

Проголосуй Открытый торрент трекер - RUS-MEDIA.ORG


Вернуться к началу
 Профиль Отправить личное сообщение  
 
   Похожие торренты   Автор   Торрент   Размер 
В этой теме нет новых непрочитанных сообщений. Майкл / Michael [фэнтези, драма, комедия, 1996] WEB-DLRip-AVC, Dvo [НТВ+]

salma3

0 | 0

1.45 ГБ

В этой теме нет новых непрочитанных сообщений. Майкл / Michael [фэнтези, драма, комедия, 1996] WEB-DL 1080p, Dvo

salma3

0 | 0

9.83 ГБ

В этой теме нет новых непрочитанных сообщений. Майкл Коллинз / Michael Collins [триллер, драма, военный, биография, 1996] BDRip 1080p, Dub

salma3

6 | 5

20.36 ГБ

В этой теме нет новых непрочитанных сообщений. Майкл Коллинз / Michael Collins [Триллер, драма, военный, биография, 1996] BDRip 720p, Dub

salma3

59 | 26

6.1 ГБ

В этой теме нет новых непрочитанных сообщений. Первая любовь / Outside Providence (Майкл Корренте / Michael Corrente) [1999г., комедия, мелодрама, драма, WEB-DLRip] MVO

Alfredovich

2 | 1

1.71 ГБ

В этой теме нет новых непрочитанных сообщений. Война против всех / War on Everyone (Джон Майкл МакДона / John Michael McDonagh) [2016г., комедия, WEB-DLRip] AVO

Alfredovich

81 | 29

1.4 ГБ

В этой теме нет новых непрочитанных сообщений. Майкл Клейтон / Michael Clayton [Триллер, драма, криминал, детектив, 2007] BDRip 1080p, Mvo+Sub

salma3

75 | 38

7.79 ГБ


Начать новую тему Ответить на тему  [ 1 сообщение ] 




Для Мосгорсуда, Роскомнадзора и рекламодателей:: mosgorsud-torrent[собачка]yandex.ru
cron