Торрент файл
скачать торрент магнет ссылка Добавлен: 13 авг 2018, 21:27
Размер: 2.31 ГБ
Сидеров: 0
Личеров: 0
Статус: (salma3)
Автор

СообщениеДобавлено: 13 авг 2018, 21:27 

Не в сети
Супермодератор
Аватара пользователя
Дата регистрации:
15 фев 2012, 16:44
Возраст: 29
Спасибо: 7333 / 2147
Сообщения: 73912
Год выпуска: 1981
Жанр: Комедия
Режиссер: Алан Майерсон

В ролях: Сильвия Кристель, Ховард Хессеман, Эрик Браун, Патрик Пиччининни, Эд Бегли мл., Памела Джин Брайант, Меридит Баер, Рон Фостер, Питер Элблинг, Дэн Бэрроус

О фильме:
Очаровательная «Эммануэль» дает совершенно особенные частные уроки. Забавная комедия об искушении невинного. Полная комичных ситуаций история о первых любовных переживаниях подростка, столкнувшегося с коварным миром взрослых, происходит во время летних каникул в богатом доме, уютно расположившемся посреди идиллических пейзажей Аризоны. Уезжая в деловую поездку, мистер Филлмор отдает распоряжение прелестной домработнице Николь преподать своему 15-летнему сыну Филли частные сексуальные уроки. И Филли искренне влюбляется в Николь. А Николь, сговорившись со своим дружком, разыгрывает маленький спектакль, который может закончиться большими денежными неприятностями для юного Казановы.



Страна: США
Продолжительность: 01:27:37
Перевод: Профессиональный двухголосый (До 00:31:30 идет профессиональная двухголосая озвучка, далее и до конца перевод Михаила Иванова.), aвторский одноголосый (Андрей Гаврилов, Максим Ошурков)
Релиз от: Охрана (NNMCLUB)

Файл
Качество видео: BDRip-AVC
Видео: AVC/H.264, 1024x576, ~2950 Kbps
Аудио 1: Русский, AC3, 2 ch, 192 Kbps, 48.0 kHz (DVO + AVO, М. Иванов)
Аудио 2: Русский, AC3, 2 ch, 256 Kbps, 48.0 kHz (AVO, А.Гаврилов)
Аудио 3: Русский, AC3, 2 ch, 192 Kbps, 48.0 kHz (AVO, М. Ошурков)
Аудио 4: Английский, AC3, 2 ch, 192 Kbps, 48.0 kHz (Оригинал)
Субтитры: Английские

Общее
Уникальный идентификатор : 227866050563144792026112407253637168830 (0xAB6D67AEA97D492CAB2B4A963E607EBE)
Полное имя : F:DownloadsЧастные уроки. 1981. NNMCLUB.mkv
Формат : Matroska
Версия формата : Version 4 / Version 2
Размер файла : 2,31 Гбайт
Продолжительность : 1 ч. 27 м.
Общий поток : 3775 Кбит/сек
Дата кодирования : UTC 2018-04-08 22:43:45
Программа кодирования : mkvmerge v7.9.0 ('Birds') 64bit
Библиотека кодирования : libebml v1.3.1 + libmatroska v1.4.2

Видео
Идентификатор : 1
Формат : AVC
Формат/Информация : Advanced Video Codec
Профиль формата : High@L4.1
Настройки формата : CABAC / 9 Ref Frames
Параметр CABAC формата : Да
Параметр RefFrames формата : 9 кадров
Идентификатор кодека : V_MPEG4/ISO/AVC
Продолжительность : 1 ч. 27 м.
Битрейт : 2950 Кбит/сек
Ширина : 1024 пикселя
Высота : 576 пикселей
Соотношение сторон : 16:9
Режим частоты кадров : Постоянный
Частота кадров : 23,976 (24000/1001) кадра/сек
Цветовое пространство : YUV
Субдискретизация насыщенности : 4:2:0
Битовая глубина : 8 бит
Тип развёртки : Прогрессивная
Бит/(Пиксели*Кадры) : 0.209
Размер потока : 1,80 Гбайт (78%)
Заголовок : Private Lessons
Библиотека кодирования : x264 core 146 r2538 121396c
Настройки программы : cabac=1 / ref=9 / deblock=1:-1:-1 / analyse=0x3:0x113 / me=umh / subme=10 / psy=1 / psy_rd=1.00:0.10 / mixed_ref=1 / me_range=32 / chroma_me=1 / trellis=2 / 8x8dct=1 / cqm=0 / deadzone=21,11 / fast_pskip=0 / chroma_qp_offset=-3 / threads=6 / lookahead_threads=1 / sliced_threads=0 / nr=0 / decimate=0 / interlaced=0 / bluray_compat=0 / constrained_intra=0 / bframes=7 / b_pyramid=2 / b_adapt=2 / b_bias=0 / direct=3 / weightb=1 / open_gop=0 / weightp=2 / keyint=250 / keyint_min=25 / scenecut=40 / intra_refresh=0 / rc_lookahead=60 / rc=2pass / mbtree=1 / bitrate=2950 / ratetol=1.0 / qcomp=0.60 / qpmin=0 / qpmax=69 / qpstep=4 / cplxblur=20.0 / qblur=0.5 / vbv_maxrate=14000 / vbv_bufsize=14000 / nal_hrd=none / filler=0 / ip_ratio=1.40 / aq=1:1.00
Язык : English
Default : Да
Forced : Нет

Аудио #1
Идентификатор : 2
Формат : AC-3
Формат/Информация : Audio Coding 3
Идентификатор кодека : A_AC3
Продолжительность : 1 ч. 27 м.
Вид битрейта : Постоянный
Битрейт : 192 Кбит/сек
Каналы : 2 канала
Расположение каналов : Front: L R
Частота : 48,0 КГц
Частота кадров : 31,250 кадров/сек (1536 SPF)
Битовая глубина : 16 бит
Метод сжатия : С потерями
Размер потока : 120 Мбайт (5%)
Заголовок : Профессиональный (двухголосый закадровый) + Авторский (одноголосый закадровый) - Михаил Иванов
Язык : Russian
ServiceKind : Complete Main
Default : Нет
Forced : Нет

Аудио #2
Идентификатор : 3
Формат : AC-3
Формат/Информация : Audio Coding 3
Идентификатор кодека : A_AC3
Продолжительность : 1 ч. 27 м.
Вид битрейта : Постоянный
Битрейт : 256 Кбит/сек
Каналы : 2 канала
Расположение каналов : Front: L R
Частота : 48,0 КГц
Частота кадров : 31,250 кадров/сек (1536 SPF)
Битовая глубина : 16 бит
Метод сжатия : С потерями
Размер потока : 160 Мбайт (7%)
Заголовок : Авторский, А.Гаврилов
Язык : Russian
ServiceKind : Complete Main
Default : Нет
Forced : Нет

Аудио #3
Идентификатор : 4
Формат : AC-3
Формат/Информация : Audio Coding 3
Идентификатор кодека : A_AC3
Продолжительность : 1 ч. 27 м.
Вид битрейта : Постоянный
Битрейт : 192 Кбит/сек
Каналы : 2 канала
Расположение каналов : Front: L R
Частота : 48,0 КГц
Частота кадров : 31,250 кадров/сек (1536 SPF)
Битовая глубина : 16 бит
Метод сжатия : С потерями
Размер потока : 120 Мбайт (5%)
Заголовок : Авторский, М. Ошурков
Язык : Russian
ServiceKind : Complete Main
Default : Нет
Forced : Нет

Аудио #4
Идентификатор : 5
Формат : AC-3
Формат/Информация : Audio Coding 3
Идентификатор кодека : A_AC3
Продолжительность : 1 ч. 27 м.
Вид битрейта : Постоянный
Битрейт : 192 Кбит/сек
Каналы : 2 канала
Расположение каналов : Front: L R
Частота : 48,0 КГц
Частота кадров : 31,250 кадров/сек (1536 SPF)
Битовая глубина : 16 бит
Метод сжатия : С потерями
Размер потока : 120 Мбайт (5%)
Заголовок : Оригинал
Язык : English
ServiceKind : Complete Main
Default : Нет
Forced : Нет

Текст
Идентификатор : 6
Формат : UTF-8
Идентификатор кодека : S_TEXT/UTF8
Идентификатор кодека/Информация : UTF-8 Plain Text
Продолжительность : 1 ч. 24 м.
Битрейт : 52 бит/сек
ElementCount : 1039
Размер потока : 32,5 Кбайт (0%)
Заголовок : SRT
Язык : English
Default : Нет
Forced : Нет


_________________
Проголосуй за трекер Открытый торрент трекер - RUS-MEDIA.ORG

Проголосуй Открытый торрент трекер - RUS-MEDIA.ORG


Вернуться к началу
 Профиль Отправить личное сообщение  
 
   Похожие торренты   Автор   Торрент   Размер 
В этой теме нет новых непрочитанных сообщений. Частные уроки / Private Lessons [Комедия, 1981] BDRemux 1080p, Avo

salma3

122 | 45

13.61 ГБ

В этой теме нет новых непрочитанных сообщений. Частные уроки / Private Lessons [комедия, 1981] HDRip, Avo [Гаврилов]

salma3

168 | 29

1.45 ГБ

В этой теме нет новых непрочитанных сообщений. Уроки вождения / Driving Lessons [драма, комедия, 2006] DVDRip, Mvo

salma3

7 | 2

1.46 ГБ

В этой теме нет новых непрочитанных сообщений. Частные сыщики / Private Eyes [S02] [Комедия, криминал, драма, 2017] HDTVRip, Mvo [IdeaFilm]

salma3

2 | 10

10.6 ГБ

В этой теме нет новых непрочитанных сообщений. Частные сыщики / Private Eyes [S02] [Комедия, криминал, драма, 2017] HDTVRip 720p, Mvo [IdeaFilm]

salma3

0 | 0

27.93 ГБ

В этой теме нет новых непрочитанных сообщений. Частные сыщики / Private Eyes [S02] [Комедия, криминал, драма, 2017] HDTVRip 720p, Dvo [SunshineStudio]

salma3

0 | 0

17.19 ГБ

В этой теме нет новых непрочитанных сообщений. Stepmom Lessons 5 / Уроки Мачехи 5 (2016) WEB-DL

amadei

39 | 16

2.14 ГБ


Начать новую тему Ответить на тему  [ 1 сообщение ] 




Для Мосгорсуда, Роскомнадзора и рекламодателей:: mosgorsud-torrent[собачка]yandex.ru
cron