Торрент файл
скачать торрент магнет ссылка Добавлен: 16 июл 2018, 10:06
Размер: 2.18 ГБ
Сидеров: 0
Личеров: 0
Статус: (salma3)
Автор

СообщениеДобавлено: 16 июл 2018, 10:06 

Не в сети
Супермодератор
Аватара пользователя
Дата регистрации:
15 фев 2012, 16:44
Возраст: 30
Спасибо: 8134 / 2148
Сообщения: 94924
Год выхода: 1958
Жанр: драма, мелодрама, вестерн
Режиссер: Энтони Манн

В ролях: Гэри Купер, Джули Лондон, Ли Дж. Кобб, Артур О’Коннелл, Джек Лорд, Джон Денер, Ройал Дэно, Роберт Дж. Уилки, Джо Домингез, Дик Эллиотт

О фильме:
Грубоватый фермер Линк Джонс оказывается посреди пустыни в компании привлекательной танцовщицы и картежника после того, как поезд, на котором они ехали, был ограблен.



Страна: США
Продолжительность: 01:39:17
Перевод: Профессиональный двухголосый

Файл
Кодек: x264
Качество: BDRip-AVC
Видео: MPEG-4 AVC, 2755 Kбит/с, 1024x436, 23.976 Кадр/с
Аудио #1: AC3, 2 ch, 192 Кбит/с | Русский
Аудио #2: AC3, 1 ch, 192 Кбит/с | Aнглийский

Общее
Уникальный идентификатор : 132867473338662332354275358567070789986 (0x63F55834AD87C7FBB80C72097DE57162)
Полное имя : Man.of.the.West.1958.BDRip.AVC.mkv
Формат : Matroska
Версия формата : Version 4 / Version 2
Размер файла : 2,18 Гбайт
Продолжительность : 1 ч. 39 м.
Общий поток : 3141 Кбит/сек
Название фильма : Man.of.the.West.1958.BDRip.AVC by Koenig
Дата кодирования : UTC 2018-07-15 18:08:53
Программа кодирования : mkvmerge v21.0.0 ('Tardigrades Will Inherit The Earth') 32-bit
Библиотека кодирования : libebml v1.3.5 + libmatroska v1.4.8
Обложка : Yes
Attachments : cover.jpg

Видео
Идентификатор : 1
Формат : AVC
Формат/Информация : Advanced Video Codec
Профиль формата : High@L4.1
Параметр CABAC формата : Да
Параметр ReFrames формата : 12 кадров
Идентификатор кодека : V_MPEG4/ISO/AVC
Продолжительность : 1 ч. 39 м.
Битрейт : 2755 Кбит/сек
Ширина : 1024 пикселя
Высота : 436 пикселей
Соотношение сторон : 2,35:1
Режим частоты кадров : Постоянный
Частота кадров : 23,976 (24000/1001) кадра/сек
Цветовое пространство : YUV
Субдискретизация насыщенности : 4:2:0
Битовая глубина : 8 бит
Тип развёртки : Прогрессивная
Бит/(Пиксели*Кадры) : 0.257
Размер потока : 1,91 Гбайт (88%)
Заголовок : Man.of.the.West.1958.BDRip.AVC
Библиотека кодирования : x264 core 152 r2851 ba24899
Настройки программы : cabac=1 / ref=12 / deblock=1:-3:-3 / analyse=0x3:0x133 / me=umh / subme=10 / psy=1 / psy_rd=1.00:0.07 / mixed_ref=1 / me_range=32 / chroma_me=1 / trellis=2 / 8x8dct=1 / cqm=0 / deadzone=21,11 / fast_pskip=0 / chroma_qp_offset=-3 / threads=3 / lookahead_threads=1 / sliced_threads=0 / nr=0 / decimate=1 / interlaced=0 / bluray_compat=0 / constrained_intra=0 / bframes=14 / b_pyramid=2 / b_adapt=2 / b_bias=0 / direct=3 / weightb=1 / open_gop=0 / weightp=2 / keyint=240 / keyint_min=23 / scenecut=40 / intra_refresh=0 / rc_lookahead=40 / rc=2pass / mbtree=1 / bitrate=2755 / ratetol=1.0 / qcomp=0.60 / qpmin=10 / qpmax=51 / qpstep=4 / cplxblur=20.0 / qblur=0.5 / vbv_maxrate=50000 / vbv_bufsize=62500 / nal_hrd=none / filler=0 / ip_ratio=1.40 / aq=1:1.00
Язык : English
Default : Да
Forced : Нет

Аудио #1
Идентификатор : 2
Формат : AC-3
Формат/Информация : Audio Coding 3
Параметр Endianness формата : Big
Идентификатор кодека : A_AC3
Продолжительность : 1 ч. 39 м.
Вид битрейта : Постоянный
Битрейт : 192 Кбит/сек
Каналы : 2 канала
Расположение каналов : Front: L R
Частота : 48,0 КГц
Частота кадров : 31,250 кадров/сек (1536 spf)
Битовая глубина : 16 бит
Метод сжатия : С потерями
Размер потока : 136 Мбайт (6%)
Заголовок : DVO
Язык : Russian
ServiceKind/String : Complete Main
Default : Да
Forced : Нет

Аудио #2
Идентификатор : 3
Формат : AC-3
Формат/Информация : Audio Coding 3
Параметр Endianness формата : Big
Идентификатор кодека : A_AC3
Продолжительность : 1 ч. 39 м.
Вид битрейта : Постоянный
Битрейт : 192 Кбит/сек
Каналы : 1 канал
Расположение каналов : Front: C
Частота : 48,0 КГц
Частота кадров : 31,250 кадров/сек (1536 spf)
Битовая глубина : 16 бит
Метод сжатия : С потерями
Размер потока : 136 Мбайт (6%)
Заголовок : Original
Язык : English
ServiceKind/String : Complete Main
Default : Нет
Forced : Нет

Меню
00:00:00.000 : en:Chapter 1
00:04:46.620 : en:Chapter 2
00:12:25.286 : en:Chapter 3
00:21:18.486 : en:Chapter 4
00:34:21.017 : en:Chapter 5
00:47:34.518 : en:Chapter 6
00:51:58.991 : en:Chapter 7
01:00:13.944 : en:Chapter 8
01:09:40.385 : en:Chapter 9
01:18:40.257 : en:Chapter 10
01:25:10.230 : en:Chapter 11
01:33:29.229 : en:Chapter 12


_________________
Проголосуй за трекер Открытый торрент трекер - RUS-MEDIA.ORG

Проголосуй Открытый торрент трекер - RUS-MEDIA.ORG


Скачать книги и аудио книги через торрент


Вернуться к началу
 Профиль Отправить личное сообщение  
 
   Похожие торренты   Автор   Торрент   Размер 
В этой теме нет новых непрочитанных сообщений. Плетеный человек / The Wicker Man [ужасы, триллер, драма, 1973] BDRip-AVC, Dvo

salma3

7 | 2

2.86 ГБ

В этой теме нет новых непрочитанных сообщений. Человек диких прерий / Man in the Wilderness [драма, приключения, вестерн, 1971] BDRip, Avo

salma3

130 | 21

1.45 ГБ

В этой теме нет новых непрочитанных сообщений. Человек эпохи Возрождения / Renaissance Man [драма, комедия, 1994] WEB-DLRip-AVC, Dvo

salma3

0 | 0

3.59 ГБ

В этой теме нет новых непрочитанных сообщений. Тумстоун: Легенда дикого запада / Tombstone [боевик, мелодрама, драма, вестерн, 1993] BDRemux 1080p, Mvo

salma3

24 | 34

43.64 ГБ

В этой теме нет новых непрочитанных сообщений. Бравадос / The Bravados [драма, вестерн, 1958] HDRip, Dvo

salma3

98 | 34

1.45 ГБ

В этой теме нет новых непрочитанных сообщений. Человек человеку / Man to Man [Драма, триллер, история, 2005] DVDRip-AVC, Mvo

salma3

178 | 57

2.36 ГБ

В этой теме нет новых непрочитанных сообщений. Человек на луне / The Man in the Moon (Роберт Маллиган) [1991, драма, мелодрама, HDRip] Dvo [HTB+]

salma3

56 | 12

1.45 ГБ


Начать новую тему Ответить на тему  [ 1 сообщение ] 




Для Мосгорсуда, Роскомнадзора и рекламодателей:: mosgorsud-torrent[собачка]yandex.ru
cron