COVID-19 - Последняя информация о коронавирусе на сайте Минздрава




Торрент файл
скачать торрент магнет ссылка Добавлен: 08 июл 2018, 20:45
Размер: 2.18 ГБ
Сидеров: 0
Личеров: 2
Статус: (salma3)
Автор

СообщениеДобавлено: 08 июл 2018, 20:45 

Не в сети
Супермодератор
Аватара пользователя
Дата регистрации:
15 фев 2012, 16:44
Возраст: 31
Спасибо: 8278 / 2148
Сообщения: 96637
Год выпуска: 2018
Жанр: Триллер, комедия, криминал
Режиссер: Джон Фрэнсис Дейли, Джонатан М. Голдштейн

Актеры: Джейсон Бейтмен, Рэйчел МакАдамс, Кайл Чандлер, Шэрон Хорган, Билли Магнуссен, Ламорн Моррис, Кайли Банбери, Джесси Племонс, Майкл С. Холл, Дэнни Хьюстон

Описание:
История Макса и Энни, которые вместе с другими парами каждую неделю устраивают так называемые «ночные игры». И вот однажды харизматичный брат Макса Брукс организовывает вечер по разгадыванию «убийственного» квеста с «ряжеными» головорезами и агентами ФБР. Получается, похищение Брукса в тот вечер — это розыгрыш… или нет? В итоге, по мере того, как шестеро мега-азартных игроков пытаются решить заготовленные головоломки и выиграть, они начинают осознавать, что и «квест», и Брукс — совсем не такие, как кажутся. В течение всей этой суматошной ночи друзья не раз прыгают выше головы, пытаясь выпутаться из очередной передряги. В игре нет правил, за нее не начисляются очки, а игроки понятия не имеют, кому противостоят. Эта ночь может стать самой зажигательной в их жизни… или последней.



Производство: США
Продолжительность: 01:40:05
Перевод: Дублированный [Лицензия]

Качество:BDRip-AVC
Видео: AVC/H.264, 1152x480, ~2222 kbps
Аудио 1: AC3, 6 ch, 448 kbps - Русский
Аудио 2: AC3, 6 ch, 448 kbps - Английский
Субтитры: русские (полные + форс.)

Код:
Nochnyie.Igry.2018.DUAL.BDRip.x264.mkv
Format                      : Matroska
Format version              : Version 4 / Version 2
File size                   : 2.18 GiB
Duration                    : 1 h 40 min
Overall bit rate            : 3 121 kb/s
Movie name                  : Game Night (2018)
Encoded date                : UTC 2018-06-13 19:41:51
Writing application         : mkvmerge v5.9.0 ('On The Loose') built on Dec 15 2012 16:39:58
Writing library             : libebml v1.3.0 + libmatroska v1.4.0

Video
ID                          : 1
Format                      : AVC
Format/Info                 : Advanced Video Codec
Format profile              :
Format settings             : CABAC / 10 Ref Frames
Format settings, CABAC      : Yes
Format settings, ReFrames   : 10 frames
Codec ID                    : V_MPEG4/ISO/AVC
Duration                    : 1 h 40 min
Bit rate                    : 2 222 kb/s
Width                       : 1 152 pixels
Height                      : 480 pixels
Display aspect ratio        : 2.40:1
Frame rate mode             : Constant
Frame rate                  : 23.976 (24000/1001) FPS
Color space                 : YUV
Chroma subsampling          : 4:2:0
Bit depth                   : 8 bits
Scan type                   : Progressive
Bits/(Pixel*Frame)          : 0.168
Stream size                 : 1.51 GiB (69%)
Title                       : potroks
Writing library             : x264 core 155 r2901M 7d0ff22
Encoding settings           : cabac=1 / ref=10 / deblock=1:-2:-2 / analyse=0x3:0x133 / me=umh / subme=11 / psy=1 / psy_rd=1.00:0.05 / mixed_ref=1 / me_range=48 / chroma_me=1 / trellis=2 / 8x8dct=1 / cqm=0 / deadzone=21,11 / fast_pskip=0 / chroma_qp_offset=-3 / threads=9 / lookahead_threads=2 / sliced_threads=0 / nr=0 / decimate=0 / interlaced=0 / bluray_compat=0 / constrained_intra=0 / bframes=11 / b_pyramid=2 / b_adapt=2 / b_bias=0 / direct=3 / weightb=1 / open_gop=0 / weightp=2 / keyint=240 / keyint_min=23 / scenecut=40 / intra_refresh=0 / rc_lookahead=60 / rc=2pass / mbtree=0 / bitrate=2222 / ratetol=1.0 / qcomp=0.70 / qpmin=0 / qpmax=69 / qpstep=4 / cplxblur=20.0 / qblur=0.5 / vbv_maxrate=50000 / vbv_bufsize=50000 / nal_hrd=none / filler=0 / ip_ratio=1.40 / pb_ratio=1.30 / aq=1:0.80
Language                    : English
Default                     : Yes
Forced                      : No

Audio #1
ID                          : 2
Format                      : AC-3
Format/Info                 : Audio Coding 3
Codec ID                    : A_AC3
Duration                    : 1 h 40 min
Bit rate mode               : Constant
Bit rate                    : 448 kb/s
Channel(s)                  : 6 channels
Channel positions           : Front: L C R, Side: L R, LFE
Sampling rate               : 48.0 kHz
Frame rate                  : 31.250 FPS (1536 SPF)
Bit depth                   : 16 bits
Compression mode            : Lossy
Stream size                 : 321 MiB (14%)
Title                       : Dub | DD 5.1 @ 448 kbps - Blu-ray CEE
Language                    : Russian
Service kind                : Complete Main
Default                     : Yes
Forced                      : No

Audio #2
ID                          : 3
Format                      : AC-3
Format/Info                 : Audio Coding 3
Codec ID                    : A_AC3
Duration                    : 1 h 40 min
Bit rate mode               : Constant
Bit rate                    : 448 kb/s
Channel(s)                  : 6 channels
Channel positions           : Front: L C R, Side: L R, LFE
Sampling rate               : 48.0 kHz
Frame rate                  : 31.250 FPS (1536 SPF)
Bit depth                   : 16 bits
Compression mode            : Lossy
Stream size                 : 321 MiB (14%)
Title                       : Original | DD 5.1 @ 448 kbps
Language                    : English
Service kind                : Complete Main
Default                     : No
Forced                      : No

Text #1
ID                          : 4
Format                      : UTF-8
Codec ID                    : S_TEXT/UTF8
Codec ID/Info               : UTF-8 Plain Text
Title                       : Forced
Language                    : Russian
Default                     : Yes
Forced                      : No

Text #2
ID                          : 5
Format                      : UTF-8
Codec ID                    : S_TEXT/UTF8
Codec ID/Info               : UTF-8 Plain Text
Title                       : iTunes
Language                    : Russian
Default                     : No
Forced                      : No

Text #3
ID                          : 6
Format                      : UTF-8
Codec ID                    : S_TEXT/UTF8
Codec ID/Info               : UTF-8 Plain Text
Title                       : Full
Language                    : English
Default                     : No
Forced                      : No

Text #4
ID                          : 7
Format                      : UTF-8
Codec ID                    : S_TEXT/UTF8
Codec ID/Info               : UTF-8 Plain Text
Title                       : SDH
Language                    : English
Default                     : No
Forced                      : No

Menu
00:00:00.000                : :00:00:00.000
00:10:35.093                : :00:10:35.093
00:18:37.116                : :00:18:37.116
00:32:24.860                : :00:32:24.860
00:42:40.308                : :00:42:40.308
00:52:27.353                : :00:52:27.353
01:02:01.301                : :01:02:01.301
01:11:50.932                : :01:11:50.932
01:22:36.743                : :01:22:36.743
01:32:54.903                : :01:32:54.903


_________________
Проголосуй за трекер Открытый торрент трекер - RUS-MEDIA.ORG

Проголосуй Открытый торрент трекер - RUS-MEDIA.ORG


Скачать книги и аудио книги через торрент


Вернуться к началу
 Профиль Отправить личное сообщение  
 
   Похожие торренты   Автор   Торрент   Размер 
В этой теме нет новых непрочитанных сообщений. Ночные игры / Game Night [Триллер, комедия, криминал, 2018] BDRip, Dub [Лицензия]

salma3

0 | 0

2.06 ГБ

В этой теме нет новых непрочитанных сообщений. Ночные игры / Game Night [триллер, комедия, криминал, 2018] WEB-DLRip-AVC, Dub [iTunes]

salma3

2022 | 354

747.04 МБ

В этой теме нет новых непрочитанных сообщений. Ночные игры / Game Night [триллер, комедия, криминал, 2018] WEB-DLRip-AVC, Dub [iTunes]

salma3

914 | 272

1.77 ГБ

В этой теме нет новых непрочитанных сообщений. Ночные игры / Game Night [Триллер, комедия, криминал, 2018] BDRip 720p, Dub

salma3

0 | 0

4.69 ГБ

В этой теме нет новых непрочитанных сообщений. Ночные игры / Game Night [Триллер, комедия, криминал, 2018] BDRip, Avo [Есарев]

salma3

0 | 0

1.46 ГБ

В этой теме нет новых непрочитанных сообщений. Ночные игры / Game Night [триллер, комедия, криминал, 2018] WEB-DL 1080p, Dub [iTunes]

salma3

1565 | 517

3.74 ГБ

В этой теме нет новых непрочитанных сообщений. Ночные игры / Game Night [триллер, комедия, криминал, 2018] WEB-DL 720p, Dub [iTunes]

salma3

106 | 54

3.4 ГБ


Начать новую тему Ответить на тему  [ 1 сообщение ] 




Для Мосгорсуда, Роскомнадзора и рекламодателей:: rstracker[собака]yandex.ru
cron