Торрент файл
скачать торрент магнет ссылка Добавлен: 26 июн 2018, 20:09
Размер: 677.68 МБ
Сидеров: 0
Личеров: 1
Статус: (salma3)
Автор

СообщениеДобавлено: 26 июн 2018, 20:09 

Не в сети
Супермодератор
Аватара пользователя
Дата регистрации:
15 фев 2012, 16:44
Возраст: 29
Спасибо: 8030 / 2147
Сообщения: 90412
Год выхода: 2018
Жанр: Фантастика
Режиссер: Ричард Лоури

В ролях: Джоанна Рэй, Хантер Алексис паркер, Тед Фергюсон, Мейсон Паркер, Джастин Лебрун, Шиа Луна, Джефф Кэйпертон, Шейн Семплес, Деннис Марин, Дэвид Намминга и другие

О фильме:
Религия, зомби и пришельцы - всё в одном флаконе. Пришельцы, ведомые рукой единого Господа, прилетают на Землю, дабы предупредить и спасти человечество от катастрофы, которая постигла ранее их собственную планету - нашествия живых мертвецов! И поможет им в этом никто иной как сам Иисус Христос через пророка Мию, также являющейся одной из пришельцев. Теперь им предстоить обьединить силы с человечеством и еще раз сразиться с ужасом, уничтожившим их мир!



Страна: США
Продолжительность: 01:23:46
Перевод: Любительский (двухголосый закадровый) | HiWay Grope

Файл
Кодек: XviD
Качество: WEBRip
Видео: 720x304, 25 fps, ~929 kbps, 0.17 bit/pixel
Аудио rus: AC3, 48 kHz, 2 ch, 192 Kbps

Реклама: присутствует

Семпл

General
Complete name : D:Apocalypse.Rising.2018.WEBRip.HiWayGropeApocalypse.Rising.2018.WEBRip.HiWayGrope.avi
Format : AVI
Format/Info : Audio Video Interleave
File size : 678 MiB
Duration : 1h 23mn
Overall bit rate : 1 131 Kbps
Writing application : VirtualDubMod 1.5.10.2 (build 2540/release)
Writing library : VirtualDubMod build 2540/release
Video
ID : 0
Format : xvid
Codec ID : xvid
Duration : 1h 23mn
Bit rate : 929 Kbps
Width : 720 pixels
Height : 304 pixels
Display aspect ratio : 2.35:1
Frame rate : 25.000 fps
Bits/(Pixel*Frame) : 0.170
Stream size : 557 MiB (82%)
Audio
ID : 1
Format : AC-3
Format/Info : Audio Coding 3
Mode extension : CM (complete main)
Format settings, Endianness : Big
Codec ID : 2000
Duration : 1h 23mn
Bit rate mode : Constant
Bit rate : 192 Kbps
Channel(s) : 2 channels
Channel positions : Front: L R
Sampling rate : 48.0 KHz
Frame rate : 31.250 fps (1536 spf)
Compression mode : Lossy
Stream size : 115 MiB (17%)
Alignment : Split accross interleaves
Interleave, duration : 40 ms (1.00 video frame)
Interleave, preload duration : 500 ms


Релиз от: HiWay Grope


_________________
Проголосуй за трекер Открытый торрент трекер - RUS-MEDIA.ORG

Проголосуй Открытый торрент трекер - RUS-MEDIA.ORG


Вернуться к началу
 Профиль Отправить личное сообщение  
 
   Похожие торренты   Автор   Торрент   Размер 
В этой теме нет новых непрочитанных сообщений. Апокалипсис начинается / Apocalypse Rising [Фантастика, 2018] WEBRip 720p, Dvo

salma3

350 | 92

2.49 ГБ

В этой теме нет новых непрочитанных сообщений. Апокалипсис начинается / Apocalypse Rising [Фантастика, 2018] BDRemux 1080p, Dvo

salma3

27 | 62

19.04 ГБ

В этой теме нет новых непрочитанных сообщений. Апокалипсис начинается / Apocalypse Rising [Фантастика, 2018] BDRip 720p, Mvo

salma3

0 | 0

3.85 ГБ

В этой теме нет новых непрочитанных сообщений. Люди Икс: Апокалипсис / X-Men: Apocalypse [Фантастика, боевик, приключения, 2016] Blu-Ray, Dub [Лицензия]

salma3

41 | 6

44.92 ГБ

В этой теме нет новых непрочитанных сообщений. Люди Икс: Апокалипсис / X-Men: Apocalypse [фантастика, боевик, приключения, 2016] BDRip 1080p, Dub+Mvo

marya111

206 | 111

15.73 ГБ

В этой теме нет новых непрочитанных сообщений. Люди Икс: Апокалипсис / X-Men: Apocalypse [Фантастика, фэнтези, боевик, приключения, 2016] BDRip, mvo

marya111

180 | 14

2.18 ГБ

В этой теме нет новых непрочитанных сообщений. Люди Икс: Апокалипсис / X-Men: Apocalypse [фантастика, боевик, приключения, 2016] BDRip, Dub [Лицензия]

salma3

24 | 6

2.18 ГБ


Начать новую тему Ответить на тему  [ 1 сообщение ] 




Для Мосгорсуда, Роскомнадзора и рекламодателей:: mosgorsud-torrent[собачка]yandex.ru
cron