Торрент файл
скачать торрент магнет ссылка Добавлен: 20 июн 2018, 20:25
Размер: 1.99 ГБ
Сидеров: 0
Личеров: 0
Статус: (salma3)
Автор

СообщениеДобавлено: 20 июн 2018, 20:25 

Не в сети
Супермодератор
Аватара пользователя
Дата регистрации:
15 фев 2012, 16:44
Возраст: 30
Спасибо: 8157 / 2148
Сообщения: 95485
Год выпуска: 2018
Жанр: Триллер, драма, история
Режиссер: Пер Флю

В ролях: Тео Джеймс, Бельчим Билгин, Бен Кингсли, Жаклин Биссет, Россиф Сазерленд, Брайан Маркинсон, Рэйчел Уилсон, Шона Макдональд, Даниэла Лавендер, Эйдан Дивайн

О фильме:
Молодой идеалист Майкл получает заветную должность координатора в гуманитарной программе ООН. Его отправляют в приходящий себя после войны Ирак, который теперь рвут на части правительственные агенты и представители могущественных нефтяных корпораций. Обжиться на новом месте и вникнуть в дела ему помогает его начальник — знающий регион изнутри дипломат Паша. Чем больше Майкл узнаёт, тем сильнее крепнут подозрения в большом заговоре на самом высоком уровне. Открыть его — значит поставить под удар собственную жизнь и жизни его наставника и курдской женщины, которую он любит.



Страна: Дания, Канада, США
Продолжительность: 01:48:19
Перевод: Профессиональный (многоголосый, закадровый) | HDRezka Studio

Качество:BDRip-AVC
Видео: 1024x428 (2.40:1), 23,976 fps, x264 ~1 985 kbps avg, 0.189 bit/pixel
Аудио #1: 48 kHz, AC3 Dolby Digital, 2 (L,R) ch, ~192.00 kbps avg | RUS (HDRezka Studio)
Аудио #2: 48 kHz, AC3 Dolby Digital, 3/2 (L,C,R,l,r) + LFE ch, ~448.00 kbps avg | ENG

Общее
Уникальный идентификатор : 219065610323564143994027459443081224235 (0xA4CE807A9A2CA6DA83A46615083E202B)
Полное имя : E:OlLanDGroupBackstabbing.for.Beginners.2018.BDRip(AVC).OlLanDGroup.mkv
Формат : Matroska
Версия формата : Version 4 / Version 2
Размер файла : 1,99 Гбайт
Продолжительность : 1 ч. 48 м.
Общий поток : 2624 Кбит/сек
Название фильма : Backstabbing.for.Beginners.2018 #TorpedoUK#
Дата кодирования : UTC 2018-06-20 14:58:34
Программа кодирования : mkvmerge v8.3.0 ('Over the Horizon') 64bit
Библиотека кодирования : libebml v1.3.1 + libmatroska v1.4.2

Видео
Идентификатор : 1
Формат : AVC
Формат/Информация : Advanced Video Codec
Профиль формата : High@L4.1
Параметр CABAC формата : Да
Параметр ReFrames формата : 10 кадров
Идентификатор кодека : V_MPEG4/ISO/AVC
Продолжительность : 1 ч. 48 м.
Битрейт : 1985 Кбит/сек
Ширина : 1024 пикселя
Высота : 428 пикселей
Соотношение сторон : 2,40:1
Режим частоты кадров : Постоянный
Частота кадров : 23,976 (24000/1001) кадра/сек
Цветовое пространство : YUV
Субдискретизация насыщенности : 4:2:0
Битовая глубина : 8 бит
Тип развёртки : Прогрессивная
Бит/(Пиксели*Кадры) : 0.189
Размер потока : 1,50 Гбайт (76%)
Библиотека кодирования : x264 core 146 r2538 121396c
Настройки программы : cabac=1 / ref=10 / deblock=1:-3:-3 / analyse=0x3:0x113 / me=umh / subme=11 / psy=1 / psy_rd=0.99:0.04 / mixed_ref=1 / me_range=48 / chroma_me=1 / trellis=2 / 8x8dct=1 / cqm=0 / deadzone=21,11 / fast_pskip=1 / chroma_qp_offset=-3 / threads=6 / lookahead_threads=1 / sliced_threads=0 / nr=0 / decimate=1 / interlaced=0 / bluray_compat=0 / constrained_intra=0 / bframes=10 / b_pyramid=2 / b_adapt=2 / b_bias=0 / direct=3 / weightb=1 / open_gop=0 / weightp=2 / keyint=240 / keyint_min=23 / scenecut=40 / intra_refresh=0 / rc_lookahead=40 / rc=2pass / mbtree=1 / bitrate=1985 / ratetol=1.0 / qcomp=0.60 / qpmin=0 / qpmax=69 / qpstep=4 / cplxblur=20.0 / qblur=0.5 / vbv_maxrate=50000 / vbv_bufsize=62500 / nal_hrd=none / filler=0 / ip_ratio=1.40 / aq=1:1.00
Default : Да
Forced : Нет

Аудио #1
Идентификатор : 2
Формат : AC-3
Формат/Информация : Audio Coding 3
Расширение режима : CM (complete main)
Параметр Endianness формата : Big
Идентификатор кодека : A_AC3
Продолжительность : 1 ч. 48 м.
Вид битрейта : Постоянный
Битрейт : 192 Кбит/сек
Каналы : 2 канала
Расположение каналов : Front: L R
Частота : 48,0 КГц
Частота кадров : 31,250 кадров/сек (1536 spf)
Битовая глубина : 16 бит
Метод сжатия : С потерями
Размер потока : 148 Мбайт (7%)
Заголовок : [HDRezka Studio]
Язык : Russian
Default : Да
Forced : Нет

Аудио #2
Идентификатор : 3
Формат : AC-3
Формат/Информация : Audio Coding 3
Расширение режима : CM (complete main)
Параметр Endianness формата : Big
Идентификатор кодека : A_AC3
Продолжительность : 1 ч. 48 м.
Вид битрейта : Постоянный
Битрейт : 448 Кбит/сек
Каналы : 6 каналов
Расположение каналов : Front: L C R, Side: L R, LFE
Частота : 48,0 КГц
Частота кадров : 31,250 кадров/сек (1536 spf)
Битовая глубина : 16 бит
Метод сжатия : С потерями
Размер потока : 347 Мбайт (17%)
Заголовок : Original
Язык : English
Default : Нет
Forced : Нет

Текст
Идентификатор : 4
Формат : UTF-8
Идентификатор кодека : S_TEXT/UTF8
Идентификатор кодека/Информация : UTF-8 Plain Text
Продолжительность : 1 ч. 37 м.
Битрейт : 64 бит/сек
Count of elements : 1267
Размер потока : 46,0 Кбайт (0%)
Заголовок : Full
Язык : English
Default : Нет
Forced : Нет

Меню
00:00:00.000 : en:Chapter 01
00:06:17.835 : en:Chapter 02
00:13:56.460 : en:Chapter 03
00:20:28.894 : en:Chapter 04
00:26:47.355 : en:Chapter 05
00:34:13.384 : en:Chapter 06
00:39:15.853 : en:Chapter 07
00:47:05.072 : en:Chapter 08
00:55:11.975 : en:Chapter 09
01:01:09.040 : en:Chapter 10
01:08:02.203 : en:Chapter 11
01:13:20.437 : en:Chapter 12
01:20:43.296 : en:Chapter 13
01:28:12.453 : en:Chapter 14
01:34:46.013 : en:Chapter 15
01:39:05.731 : en:Chapter 16






Релиз от: Rip by:


_________________
Проголосуй за трекер Открытый торрент трекер - RUS-MEDIA.ORG

Проголосуй Открытый торрент трекер - RUS-MEDIA.ORG


Скачать книги и аудио книги через торрент


Вернуться к началу
 Профиль Отправить личное сообщение  
 
   Похожие торренты   Автор   Торрент   Размер 
В этой теме нет новых непрочитанных сообщений. Предательство для начинающих / Backstabbing for Beginners [Триллер, драма, история, 2018] BDRip, Mvo

salma3

0 | 0

1.46 ГБ

В этой теме нет новых непрочитанных сообщений. Предательство для начинающих / Backstabbing for Beginners [Триллер, драма, история, 2018] BDRip, Mvo

salma3

0 | 0

745.64 МБ

В этой теме нет новых непрочитанных сообщений. Предательство для начинающих / Backstabbing for Beginners [драма, триллер, история, 2018] HDRip, Mvo

salma3

751 | 120

1.46 ГБ

В этой теме нет новых непрочитанных сообщений. Раздражительность / Acrimony [триллер, 2018] BDRip-AVC, Mvo

salma3

88 | 13

1.39 ГБ

В этой теме нет новых непрочитанных сообщений. Отпуск / Furlough [комедия, 2018] BDRip-AVC, Mvo

salma3

0 | 0

1.52 ГБ

В этой теме нет новых непрочитанных сообщений. Портал / The Gateway [Фантастика, 2018] BDRip-AVC, Mvo

salma3

163 | 32

1.61 ГБ

В этой теме нет новых непрочитанных сообщений. Траффик / Traffik [Триллер, 2018] BDRip-AVC, Mvo

salma3

0 | 0

1.39 ГБ


Начать новую тему Ответить на тему  [ 1 сообщение ] 




Для Мосгорсуда, Роскомнадзора и рекламодателей:: mosgorsud-torrent[собачка]yandex.ru
cron