COVID-19 - Последняя информация о коронавирусе на сайте Минздрава




Торрент файл
скачать торрент магнет ссылка Добавлен: 20 июн 2018, 11:00
Размер: 2.56 ГБ
Сидеров: 0
Личеров: 0
Статус: (salma3)
Автор

СообщениеДобавлено: 20 июн 2018, 11:00 

Не в сети
Супермодератор
Аватара пользователя
Дата регистрации:
15 фев 2012, 16:44
Возраст: 31
Спасибо: 8280 / 2148
Сообщения: 96711
Год выхода: 1953
Жанр: драма, мелодрама, приключения
Режиссер: Джон Форд

В ролях: Кларк Гейбл, Ава Гарднер, Грэйс Келли, Дональд Синден, Филип Стейнтон, Эрик Польман, Лоуренс Нэйсмит, Денис О’Ди, Самбуру, Вагения

О фильме:
Кения, центральная Африка. Профессиональный охотник и авантюрист Виктор Марсуэлл помогает группам туристов и антропологов преодолевать бескрайние просторы саванны и непроходимые заросли черного континента. Во время одной из экспедиций он встречает Келли, танцовщицу из варьете, которая намного младше его.
Между ними завязывается бурный роман, который будет прерван прибытием в поселок семейной пары Нордли. Антрополог Доналд и его чопорная, и на вид неприступная, жена Линда, прибыли для изучения жизни горилл и шимпанзе. Любвеобильный Виктор решает приударить за неприступной женой ученого и не безуспешно. Этот авантюрный поступок причинит боль Келли, но приведет к неожиданной развязке в сложившемся любовном треугольнике...



Страна: США, Великобритания
Продолжительность: 01:56:03
Перевод: Профессиональный (двухголосый закадровый)
Релиз от: Охрана (NNMCLUB)

Файл
Кодек: x264
Качество: WEB-DLRip-AVC
Видео: AVC/H.264, 768x576, ~2575 Kbps
Аудио 1: Русский, AC3, 2 ch, 192 Kbps, 48.0 kHz (DVO, Film Prestige)
Аудио 2: Русский, AC3, 2 ch, 192 Kbps, 48.0 kHz (DVO, New Dream Media)
Аудио 3: Английский, AC3, 2 ch, 192 Kbps, 48.0 kHz (Оригинал)
Субтитры: Русские, английские (Full, SDH)



Общее
Уникальный идентификатор : 177057734905114569925196151676793625087 (0x8534145089C04263ACB540E8295599FF)
Полное имя : F:DownloadsМогамбо. 1953. NNMCLUB.mkv
Формат : Matroska
Версия формата : Version 4 / Version 2
Размер файла : 2,56 Гбайт
Продолжительность : 1 ч. 56 м.
Общий поток : 3154 Кбит/сек
Дата кодирования : UTC 2018-06-15 11:11:46
Программа кодирования : mkvmerge v7.9.0 ('Birds') 64bit
Библиотека кодирования : libebml v1.3.1 + libmatroska v1.4.2

Видео
Идентификатор : 1
Формат : AVC
Формат/Информация : Advanced Video Codec
Профиль формата : High@L4.1
Настройки формата : CABAC / 12 Ref Frames
Параметр CABAC формата : Да
Параметр RefFrames формата : 12 кадров
Идентификатор кодека : V_MPEG4/ISO/AVC
Продолжительность : 1 ч. 56 м.
Битрейт : 2575 Кбит/сек
Ширина : 768 пикселей
Высота : 576 пикселей
Соотношение сторон : 4:3
Режим частоты кадров : Постоянный
Частота кадров : 23,976 (24000/1001) кадра/сек
Цветовое пространство : YUV
Субдискретизация насыщенности : 4:2:0
Битовая глубина : 8 бит
Тип развёртки : Прогрессивная
Бит/(Пиксели*Кадры) : 0.243
Размер потока : 2,09 Гбайт (82%)
Заголовок : Mogambo
Библиотека кодирования : x264 core 146 r2538 121396c
Настройки программы : cabac=1 / ref=12 / deblock=1:-1:-1 / analyse=0x3:0x113 / me=umh / subme=10 / psy=1 / psy_rd=1.00:0.10 / mixed_ref=1 / me_range=32 / chroma_me=1 / trellis=2 / 8x8dct=1 / cqm=0 / deadzone=21,11 / fast_pskip=0 / chroma_qp_offset=-3 / threads=6 / lookahead_threads=1 / sliced_threads=0 / nr=0 / decimate=0 / interlaced=0 / bluray_compat=0 / constrained_intra=0 / bframes=7 / b_pyramid=2 / b_adapt=2 / b_bias=0 / direct=3 / weightb=1 / open_gop=0 / weightp=2 / keyint=250 / keyint_min=25 / scenecut=40 / intra_refresh=0 / rc_lookahead=60 / rc=2pass / mbtree=1 / bitrate=2575 / ratetol=1.0 / qcomp=0.60 / qpmin=0 / qpmax=69 / qpstep=4 / cplxblur=20.0 / qblur=0.5 / vbv_maxrate=14000 / vbv_bufsize=14000 / nal_hrd=none / filler=0 / ip_ratio=1.40 / aq=1:1.00
Язык : English
Default : Да
Forced : Нет

Аудио #1
Идентификатор : 2
Формат : AC-3
Формат/Информация : Audio Coding 3
Идентификатор кодека : A_AC3
Продолжительность : 1 ч. 56 м.
Вид битрейта : Постоянный
Битрейт : 192 Кбит/сек
Каналы : 2 канала
Расположение каналов : Front: L R
Частота : 48,0 КГц
Частота кадров : 31,250 кадров/сек (1536 SPF)
Битовая глубина : 16 бит
Метод сжатия : С потерями
Размер потока : 159 Мбайт (6%)
Заголовок : Двухголосый закадровый, Film Prestige
Язык : Russian
ServiceKind : Complete Main
Default : Да
Forced : Нет

Аудио #2
Идентификатор : 3
Формат : AC-3
Формат/Информация : Audio Coding 3
Идентификатор кодека : A_AC3
Продолжительность : 1 ч. 56 м.
Вид битрейта : Постоянный
Битрейт : 192 Кбит/сек
Каналы : 2 канала
Расположение каналов : Front: L R
Частота : 48,0 КГц
Частота кадров : 31,250 кадров/сек (1536 SPF)
Битовая глубина : 16 бит
Метод сжатия : С потерями
Размер потока : 159 Мбайт (6%)
Заголовок : Двухголосый закадровый, New Dream Media
Язык : Russian
ServiceKind : Complete Main
Default : Нет
Forced : Нет

Аудио #3
Идентификатор : 4
Формат : AC-3
Формат/Информация : Audio Coding 3
Идентификатор кодека : A_AC3
Продолжительность : 1 ч. 56 м.
Вид битрейта : Постоянный
Битрейт : 192 Кбит/сек
Каналы : 2 канала
Расположение каналов : Front: L R
Частота : 48,0 КГц
Частота кадров : 31,250 кадров/сек (1536 SPF)
Битовая глубина : 16 бит
Метод сжатия : С потерями
Размер потока : 159 Мбайт (6%)
Заголовок : Оригинал
Язык : English
ServiceKind : Complete Main
Default : Нет
Forced : Нет

Текст #1
Идентификатор : 5
Формат : UTF-8
Идентификатор кодека : S_TEXT/UTF8
Идентификатор кодека/Информация : UTF-8 Plain Text
Продолжительность : 1 ч. 55 м.
Битрейт : 98 бит/сек
ElementCount : 1392
Размер потока : 83,0 Кбайт (0%)
Заголовок : Full
Язык : Russian
Default : Нет
Forced : Нет

Текст #2
Идентификатор : 6
Формат : UTF-8
Идентификатор кодека : S_TEXT/UTF8
Идентификатор кодека/Информация : UTF-8 Plain Text
Продолжительность : 1 ч. 53 м.
Битрейт : 57 бит/сек
ElementCount : 1155
Размер потока : 47,4 Кбайт (0%)
Заголовок : Full
Язык : English
Default : Нет
Forced : Нет

Текст #3
Идентификатор : 7
Формат : UTF-8
Идентификатор кодека : S_TEXT/UTF8
Идентификатор кодека/Информация : UTF-8 Plain Text
Продолжительность : 1 ч. 53 м.
Битрейт : 66 бит/сек
ElementCount : 2100
Размер потока : 55,1 Кбайт (0%)
Заголовок : SDH
Язык : English
Default : Нет
Forced : Нет




_________________
Проголосуй за трекер Открытый торрент трекер - RUS-MEDIA.ORG

Проголосуй Открытый торрент трекер - RUS-MEDIA.ORG


Скачать книги и аудио книги через торрент


Вернуться к началу
 Профиль Отправить личное сообщение  
 
   Похожие торренты   Автор   Торрент   Размер 
В этой теме нет новых непрочитанных сообщений. Книга Джунглей / The Jungle Book [Приключения, мелодрама, семейный, 1994] WEB-DLRip-AVC, Dvo

salma3

2 | 1

2.18 ГБ

В этой теме нет новых непрочитанных сообщений. Каньон / The Canyon [Триллер, драма, приключения, 2009] WEB-DLRip-AVC, Dvo

salma3

3 | 0

1.45 ГБ

В этой теме нет новых непрочитанных сообщений. Некоторые девчонки / Some Girls [Комедия, мелодрама, 1988] WEB-DLRip-AVC, Dvo

salma3

0 | 0

2.44 ГБ

В этой теме нет новых непрочитанных сообщений. Босиком по парку / Barefoot in the Park [мелодрама, комедия, 1967] WEB-DLRip-AVC, Dvo+Sub

salma3

0 | 0

2.75 ГБ

В этой теме нет новых непрочитанных сообщений. Ио / IO [мелодрама, приключения, фантастика, 2019] WEB-DLRip 720p, Dvo [Horizon Studio]

salma3

0 | 0

2.22 ГБ

В этой теме нет новых непрочитанных сообщений. История рыцаря / A Knight's Tale [Приключения, мелодрама, комедия, 2001] WEB-DLRip-AVC, Dub [Open Matte]

salma3

0 | 0

3.1 ГБ

В этой теме нет новых непрочитанных сообщений. Все или ничего / All or Nothing [Драма, 2002] WEB-DLRip-AVC, Dvo

K15

15 | 7

2.18 ГБ


Начать новую тему Ответить на тему  [ 1 сообщение ] 




Для Мосгорсуда, Роскомнадзора и рекламодателей:: rstracker[собака]yandex.ru
cron