Торрент файл
скачать торрент магнет ссылка Добавлен: 08 июн 2018, 17:14
Размер: 1.45 ГБ
Сидеров: 0
Личеров: 1
Статус: (salma3)
Автор

СообщениеДобавлено: 08 июн 2018, 17:14 

В сети
Супермодератор
Аватара пользователя
Дата регистрации:
15 фев 2012, 16:44
Возраст: 29
Спасибо: 7328 / 2147
Сообщения: 73698
Год выхода: 1994
Жанр: Kомедия, семейный, спорт
Режиссер: Пол Майкл Глейзер

В ролях: Кевин Бэйкон, Чарльз Гитонга Майна, Иоланда Васкес, Уинстон Нтшона, Мабуто 'Кид' Ситхоул, Шон МакКэнн, Деннис Патрик, Ило Мутомбо, Найджел Мигель, Эрик Менюк, Кейт Гиббс, Мириам Овити, Фрэнсис Мутеи, Гибсон Гату Мбугуа, Вуси Кунене, Конни Чиуме, Джон Матшикиза, Кен Гампу, Джомо Леварани, Джон Лесли, Фалконер Абрахам, Дэннис Орина, Питер Кигади, Бенсон Ратенг

О фильме:
Чтобы спасти свое пошатнувшееся положение, тренер баскетбольной команды, Джимми Долан, должен принимать отчаянные меры. И в то время, как другие наставники ищут новых игроков в Америке, он отправляется в самое сердце Африки, в настоящее дикое племя. Там живет Салех, который проявляет феноменальные способности к баскетболу. Но он оказывается сыном несговорчивого вождя. Тогда Джимми задумывает хитроумный план, чтобы привезти современного Тарзана в Америку...



Выпущено: США
Продолжительность: 01:47:25
Перевод: Профессиональный двухголосый, закадровый

Файл
Кодек: x264
Качество: HDTVRip-AVC
Видео: High@L4.1, ~1738 Кбит/с, 1014x572, 23,976 кадр/сек
Звук: AC3, 2 ch, 192 Кбит/с

General
Unique ID : 60543166281443029943956296103570974473 (0x2D8C308F52D7DB31E6442B58E5EC2709)
Complete name : G:Видео_1Непобедимый дикарь_1994_HDTVRIP-AVC_[-=DoMiNo=-].mkv
Format : Matroska
Format version : Version 4 / Version 2
File size : 1.45 GiB
Duration : 1 h 47 min
Overall bit rate : 1 933 kb/s
Movie name : Непобедимый дикарь
Deion : Чтобы спасти свое пошатнувшееся положение, тренер баскетбольной команды, Джимми Долан, должен принимать отчаянные меры. И в то время, как другие наставники ищут новых игроков в Америке, он отправляется в самое сердце Африки, в настоящее дикое племя. / Там живет Салех, который проявляет феноменальные способности к баскетболу. Но он оказывается сыном несговорчивого вождя. Тогда Джимми задумывает хитроумный план, чтобы привезти современного Тарзана в Америку.
Writing application : XviD4PSP 7.0.452 DAILY
Writing library : Lavf57.71.100
ErrorDetectionType : Per level 1
Attachments : poster.jpg
ACTORS : Kevin Bacon, Charles Gitonga Maina, Yolanda Vazquez, Mabutho 'Kid' Sithole, Sean McCann, Dennis Patrick, Ilo Mutombo, Nigel Miguel, Eric Menyuk, Keith Gibbs, Miriam Owiti, John Matshikiza, Winston Ntshona
COUNTRY : United States
DATE : 1994-01-07
DIRECTOR : Paul Michael Glaser
ENCODING_INFO : MATROSKA,WEBM > MKV Пользовательский / H264 > X264 VBR-2P 1738kbps Пользовательский 2 / AC3 > COPY Безопасное
GENRE : комедия, семейный
HD_VIDEO : 1
ITUNEXTC : mpaa|PG|200|
Language : und
MEDIA_TYPE : 9
ORIGINAL_TITLE : The Air up there
PRODUCER : Robert W. Cort, Ted Field, Rosalie Swedlin
PUBLISHER : NBB Unit One Film Partners, Hollywood Pictures, PolyGram Filmed Entertainment, Interscope Communications, Nomura Babcock & Brown, Longview Entertainment
RATING : 5.50

Video
ID : 1
Format : AVC
Format/Info : Advanced Video Codec
Format profile : High@L4.1
Format settings : CABAC / 14 Ref Frames
Format settings, CABAC : Yes
Format settings, ReFrames : 14 frames
Codec ID : V_MPEG4/ISO/AVC
Duration : 1 h 47 min
Bit rate : 1 738 kb/s
Width : 1 014 pixels
Height : 572 pixels
Display aspect ratio : 16:9
Frame rate mode : Constant
Frame rate : 23.976 (24000/1001) FPS
Color space : YUV
Chroma subsampling : 4:2:0
Bit depth : 8 bits
Scan type : Progressive
Bits/(Pixel*Frame) : 0.125
Stream size : 1.28 GiB (88%)
Title : RIP_BY_-=DoMiNo=-
Writing library : x264 core 155 r2901M 7d0ff22
Encoding settings : cabac=1 / ref=14 / deblock=1:-3:-3 / analyse=0x3:0x133 / me=umh / subme=11 / psy=1 / psy_rd=1.05:0.15 / mixed_ref=1 / me_range=32 / chroma_me=1 / trellis=2 / 8x8dct=1 / cqm=0 / deadzone=21,11 / fast_pskip=0 / chroma_qp_offset=-3 / threads=6 / lookahead_threads=1 / sliced_threads=0 / nr=0 / decimate=1 / interlaced=0 / bluray_compat=0 / constrained_intra=0 / bframes=12 / b_pyramid=2 / b_adapt=2 / b_bias=0 / direct=3 / weightb=1 / open_gop=0 / weightp=2 / keyint=240 / keyint_min=24 / scenecut=40 / intra_refresh=0 / rc_lookahead=50 / rc=2pass / mbtree=1 / bitrate=1738 / ratetol=1.0 / qcomp=0.65 / qpmin=0 / qpmax=69 / qpstep=4 / cplxblur=20.0 / qblur=0.5 / ip_ratio=1.40 / aq=3:1.00
Language : English
Default : Yes
Forced : No

Audio
ID : 2
Format : AC-3
Format/Info : Audio Coding 3
Codec ID : A_AC3
Duration : 1 h 47 min
Bit rate mode : Constant
Bit rate : 192 kb/s
Channel(s) : 2 channels
Channel positions : Front: L R
Sampling rate : 48.0 kHz
Frame rate : 31.250 FPS (1536 SPF)
Bit depth : 16 bits
Compression mode : Lossy
Stream size : 148 MiB (10%)
Title : DVO_P
Language : Russian
Service kind : Complete Main
Default : Yes
Forced : No

Menu
00:00:00.000 : :Глава 1
00:09:07.630 : :Глава 2
00:18:34.322 : :Глава 3
00:28:10.105 : :Глава 4
00:37:15.316 : :Глава 5
00:46:36.711 : :Глава 6
00:56:04.278 : :Глава 7
01:04:48.927 : :Глава 8
01:14:24.961 : :Глава 9
01:24:06.542 : :Глава 10
01:33:14.255 : :Глава 11
01:41:13.943 : :Глава 12


_________________
Проголосуй за трекер Открытый торрент трекер - RUS-MEDIA.ORG

Проголосуй Открытый торрент трекер - RUS-MEDIA.ORG


Вернуться к началу
 Профиль Отправить личное сообщение  
 
   Похожие торренты   Автор   Торрент   Размер 
В этой теме нет новых непрочитанных сообщений. Непобедимый дикарь / The Air Up There [Kомедия, семейный, спорт, 1994] HDTVRip, Dvo

salma3

0 | 0

1.45 ГБ

В этой теме нет новых непрочитанных сообщений. Непобедимый дикарь / The Air Up There [Kомедия, семейный, спорт, 1994] HDTVRip 720p, Dvo

salma3

0 | 1

4.6 ГБ

В этой теме нет новых непрочитанных сообщений. Непобедимый дикарь / The Air Up There [Kомедия, семейный, спорт, 1994] WEBRip 1080p, Dvo

salma3

0 | 0

10.18 ГБ

В этой теме нет новых непрочитанных сообщений. Маленькие гиганты / Little Giants [комедия, семейный, спорт, 1994] WEB-DL 1080p, Dub

salma3

0 | 1

8.6 ГБ

В этой теме нет новых непрочитанных сообщений. Непобедимый Мэнни Пакьяо / Kid Kulafu [Драма, биография, спорт, 2015] WEB-DLRip, Dub [Line]

salma3

1199 | 210

1.46 ГБ

В этой теме нет новых непрочитанных сообщений. Непобедимый Мэнни Пакьяо / Kid Kulafu [драма, биография, спорт, 2015] WEB-DLRip-AVC, Dub [iTunes]

salma3

299 | 43

1.46 ГБ

В этой теме нет новых непрочитанных сообщений. Непобедимый Мэнни Пакьяо / Kid Kulafu [Драма, биография, спорт, 2015] WEB-DLRip 1080p, Dub [Line]

salma3

260 | 116

3.84 ГБ


Начать новую тему Ответить на тему  [ 1 сообщение ] 




Для Мосгорсуда, Роскомнадзора и рекламодателей:: mosgorsud-torrent[собачка]yandex.ru
cron