Торрент файл
скачать торрент магнет ссылка Добавлен: 28 май 2018, 20:43
Размер: 1.32 ГБ
Сидеров: 446
Личеров: 47
Статус: (salma3)
Автор

СообщениеДобавлено: 28 май 2018, 20:43 

Не в сети
Супермодератор
Аватара пользователя
Дата регистрации:
15 фев 2012, 16:44
Возраст: 30
Спасибо: 8183 / 2148
Сообщения: 95682
Год выхода: 2018
Жанр: Фантастика, фэнтези, приключения
Режиссер: Ава ДюВерней

В ролях: Сторм Рейд, Опра Уинфри, Риз Уизерспун, Минди Кейлинг, Леви Миллер, Дерик Маккейб, Крис Пайн, Гугу Эмбата-Ро, Зак Галифианакис, Майкл Пенья и другие

О фильме:
Юная Мэг вместе с младшим братом и школьным приятелем решает отправиться на поиски своего отца, учёного-физика, пропавшего в ходе научного эксперимента. Найти его предстоит не в привычном мире, а в таинственных изломах времени и пространства, где понятие реальности относительно и ничему нельзя верить! Выбраться из фантастических миров и победить тьму, которая распространяется по вселенной, можно, только изучив себя и приняв свои недостатки.



Страна: США, Walt Disney Pictures, Whitaker Entertainment
Продолжительность: 01:50:07
Перевод: Любительский (двухголосый закадровый) | HiWay Grope

Файл
Кодек: XviD
Качество: WEBRip
Видео: 720x304, 25 fps, ~1318 kbps, 0.24 bit/pixel
Аудио rus: AC3, 48 kHz, 6 ch, 384 Kbps

Реклама: присутствует

Семпл

General
Complete name : E:A.Wrinkle.in.Time.2018.WEBRip.HiWayGropeA.Wrinkle.in.Time.2018.WEBRip.HiWayGrope.avi
Format : AVI
Format/Info : Audio Video Interleave
File size : 1.32 GiB
Duration : 1h 50mn
Overall bit rate : 1 713 Kbps
Writing application : VirtualDubMod 1.5.10.2 (build 2540/release)
Writing library : VirtualDubMod build 2540/release

Video
ID : 0
Format : xvid
Codec ID : xvid
Duration : 1h 50mn
Bit rate : 1 319 Kbps
Width : 720 pixels
Height : 304 pixels
Display aspect ratio : 2.35:1
Frame rate : 25.000 fps
Bits/(Pixel*Frame) : 0.241
Stream size : 1.01 GiB (77%)

Audio
ID : 1
Format : AC-3
Format/Info : Audio Coding 3
Mode extension : CM (complete main)
Format settings, Endianness : Big
Codec ID : 2000
Duration : 1h 50mn
Bit rate mode : Constant
Bit rate : 384 Kbps
Channel(s) : 6 channels
Channel positions : Front: L C R, Side: L R, LFE
Sampling rate : 48.0 KHz
Frame rate : 31.250 fps (1536 spf)
Compression mode : Lossy
Stream size : 302 MiB (22%)
Alignment : Split accross interleaves
Interleave, duration : 40 ms (1.00 video frame)
Interleave, preload duration : 500 ms



Релиз от: HiWay Grope


_________________
Проголосуй за трекер Открытый торрент трекер - RUS-MEDIA.ORG

Проголосуй Открытый торрент трекер - RUS-MEDIA.ORG


Скачать книги и аудио книги через торрент


Вернуться к началу
 Профиль Отправить личное сообщение  
 
   Похожие торренты   Автор   Торрент   Размер 
В этой теме нет новых непрочитанных сообщений. Излом времени / A Wrinkle in Time [Фантастика, фэнтези, приключения, 2018] WEBRip 720p, Dvo

salma3

1067 | 212

2.95 ГБ

В этой теме нет новых непрочитанных сообщений. Излом времени / A Wrinkle in Time [Фантастика, фэнтези, приключения, 2018] BDRip, Dub [iTunes]

salma3

0 | 0

1.41 ГБ

В этой теме нет новых непрочитанных сообщений. Излом времени / A Wrinkle in Time [Фантастика, фэнтези, приключения, 2018] BDRip, Dub [iTunes]

salma3

1 | 1

2.13 ГБ

В этой теме нет новых непрочитанных сообщений. Излом времени / A Wrinkle in Time [Фантастика, фэнтези, приключения, 2018] BDRip, Dub [iTunes]

salma3

0 | 0

1.45 ГБ

В этой теме нет новых непрочитанных сообщений. Излом времени / A Wrinkle in Time [Фантастика, фэнтези, приключения, 2018] BDRemux 1080p, Dub [iTunes]

salma3

5 | 9

28.1 ГБ

В этой теме нет новых непрочитанных сообщений. Излом времени / A Wrinkle in Time [фантастика, фэнтези, приключения, 2018] BDRip 1080p, Dub [iTunes]

salma3

99 | 83

6.67 ГБ

В этой теме нет новых непрочитанных сообщений. Излом времени / A Wrinkle in Time [Фантастика, фэнтези, приключения, 2018] BDRip-AVC, Dub [iTunes]

salma3

1090 | 330

1.46 ГБ


Начать новую тему Ответить на тему  [ 1 сообщение ] 




Для Мосгорсуда, Роскомнадзора и рекламодателей:: mosgorsud-torrent[собачка]yandex.ru
cron