Торрент файл
скачать торрент магнет ссылка Добавлен: 26 май 2018, 15:42
Размер: 1.8 ГБ
Сидеров: 0
Личеров: 0
Статус: (salma3)
Автор

СообщениеДобавлено: 26 май 2018, 15:42 

Не в сети
Супермодератор
Аватара пользователя
Дата регистрации:
15 фев 2012, 16:44
Возраст: 28
Спасибо: 7223 / 2147
Сообщения: 67788
Год выхода: 2003
Жанр: фантастика, боевик
Режиссер: Лен Уайзмэн

В ролях: Кейт Бекинсейл, Скотт Спидман, Майкл Шин, Шэйн Бролли, Билл Найи, Эрвин Ледер, София Майлс, Робби Ги, Вентворт Миллер, Кевин Гревье


Война, незаметная простым смертным, бушевала уже тысячелетие. Два могущественных клана потусторонних существ - вампиров и оборотней, вели бой не на жизнь, а на смерть. В наши дни оборотни были практически истреблены - в живых остались лишь считанные десятки тварей, которые скрывались от специально обученных боевиков, рассчитывая затянуть время и получить шанс на выживание. Но и мир вампиров был расколот междоусобными интригами…



Страна: США, Великобритания, Германия, Венгрия
Продолжительность: 02:01:11
Перевод: Дубляж

Файл
Кодек: H.264
Качество: BDRip-AVC
Видео: 1024x576 (16:9), 1742 kbps, 23.976 fps
Звук: Русский (AC-3, 6ch, 384 kbps)

x264 [info]: frame I:1873 Avg QP:16.68 size: 69665
x264 [info]: frame P:41276 Avg QP:18.61 size: 21542
x264 [info]: frame B:131188 Avg QP:22.38 size: 4296
x264 [info]: consecutive B-frames: 3.0% 3.4% 16.6% 14.6% 20.7% 34.2% 5.9% 0.6% 1.0%
x264 [total]: encoded 174337 frames, 4.64 fps, 1741.84 kb/s

General
Unique ID : 225686464943347445689825353361896205797 (0xA9C9A1D0805D8BE1A6B329DFD1436DE5)
Complete name : F:Другой мир (Open Matte).mkv
Format : Matroska
Format version : Version 4 / Version 2
File size : 1.80 GiB
Duration : 2 h 1 min
Overall bit rate : 2 127 kb/s
Movie name : Другой мир / Underworld (2003) (Театральная) (Open Matte) - #LORDKILL#
Encoded date : UTC 2018-05-25 08:10:48
Writing application : mkvmerge v9.5.0 ('Quiet Fire') 64bit
Writing library : libebml v1.3.4 + libmatroska v1.4.5

Video
ID : 1
Format : AVC
Format/Info : Advanced Video Codec
Format profile : High@L4.1
Format settings, CABAC : Yes
Format settings, ReFrames : 10 frames
Codec ID : V_MPEG4/ISO/AVC
Duration : 2 h 1 min
Bit rate : 1 742 kb/s
Width : 1 024 pixels
Height : 576 pixels
Display aspect ratio : 16:9
Frame rate mode : Constant
Frame rate : 23.976 (24000/1001) FPS
Color space : YUV
Chroma subsampling : 4:2:0
Bit depth : 8 bits
Scan type : Progressive
Bits/(Pixel*Frame) : 0.123
Stream size : 1.47 GiB (82%)
Writing library : x264 core 146 r2538 121396c
Encoding settings : cabac=1 / ref=10 / deblock=1:-2:-2 / analyse=0x3:0x113 / me=umh / subme=10 / psy=1 / psy_rd=1.00:0.15 / mixed_ref=1 / me_range=32 / chroma_me=1 / trellis=2 / 8x8dct=1 / cqm=0 / deadzone=21,11 / fast_pskip=0 / chroma_qp_offset=-3 / threads=12 / lookahead_threads=2 / sliced_threads=0 / nr=0 / decimate=1 / interlaced=0 / bluray_compat=0 / constrained_intra=0 / bframes=8 / b_pyramid=2 / b_adapt=2 / b_bias=0 / direct=1 / weightb=1 / open_gop=0 / weightp=2 / keyint=240 / keyint_min=23 / scenecut=40 / intra_refresh=0 / rc=crf / mbtree=0 / crf=20.0 / qcomp=0.60 / qpmin=0 / qpmax=69 / qpstep=4 / ip_ratio=1.40 / pb_ratio=1.30 / aq=1:1.00
Default : Yes
Forced : No

Audio
ID : 2
Format : AC-3
Format/Info : Audio Coding 3
Mode extension : CM (complete main)
Format settings, Endianness : Big
Codec ID : A_AC3
Duration : 2 h 1 min
Bit rate mode : Constant
Bit rate : 384 kb/s
Channel(s) : 6 channels
Channel positions : Front: L C R, Side: L R, LFE
Sampling rate : 48.0 kHz
Frame rate : 31.250 FPS (1536 spf)
Bit depth : 16 bits
Compression mode : Lossy
Delay relative to video : 800 ms
Stream size : 333 MiB (18%)
Title : Дубляж
Language : Russian
Default : Yes
Forced : No


_________________
Проголосуй за трекер Открытый торрент трекер - RUS-MEDIA.ORG

Проголосуй Открытый торрент трекер - RUS-MEDIA.ORG


Вернуться к началу
 Профиль Отправить личное сообщение  
 
   Похожие торренты   Автор   Торрент   Размер 
В этой теме нет новых непрочитанных сообщений. Другой мир / Underworld [Фэнтези, боевик, триллер, 2003] UHD BDRemux 2160p, Dub [4K] [Театральная версия]

salma3

13 | 10

45.33 ГБ

В этой теме нет новых непрочитанных сообщений. Хранители / Watchmen [фантастика, триллер, драма, 2009] WEB-DL 1080p, Dub [Театральная версия] [Open Matte]

salma3

0 | 4

19.54 ГБ

В этой теме нет новых непрочитанных сообщений. Хранители / Watchmen [фантастика, триллер, драма, 2009] WEB-DL 1080p, Dub [Театральная версия] [Open Matte]

salma3

9 | 5

15.07 ГБ

В этой теме нет новых непрочитанных сообщений. Макс Пэйн / Max Payne [Боевик, триллер, драма, 2008] WEB-DL 1080p, Dub [Open Matte] [Театральная версия]

salma3

0 | 0

10.13 ГБ

В этой теме нет новых непрочитанных сообщений. Люди Икс 2 / X2 [фантастика, боевик, триллер, 2003] WEB-DL 1080p. Dub [Open Matte]

salma3

0 | 0

20.66 ГБ

В этой теме нет новых непрочитанных сообщений. Матрица: Революция / The Matrix Revolutions [Фантастика, боевик, 2003] HDTVRip-AVC, Dub [Open Matte]

salma3

0 | 1

1.57 ГБ

В этой теме нет новых непрочитанных сообщений. Одиночка / A Man Apart [Боевик, триллер, драма, 2003] BDRip 720p, Dub [Open Matte]

salma3

0 | 1

7.76 ГБ


Начать новую тему Ответить на тему  [ 1 сообщение ] 




Для Мосгорсуда, Роскомнадзора и рекламодателей:: mosgorsud-torrent[собачка]yandex.ru
cron