Торрент файл
скачать торрент магнет ссылка Добавлен: 23 май 2018, 11:11
Размер: 1.45 ГБ
Сидеров: 0
Личеров: 1
Статус: (salma3)
Автор

СообщениеДобавлено: 23 май 2018, 11:11 

Не в сети
Супермодератор
Аватара пользователя
Дата регистрации:
15 фев 2012, 16:44
Возраст: 28
Спасибо: 7205 / 2147
Сообщения: 65464
Год выхода: 1970
Жанр: ужасы, триллер
Режиссер: Марио Бава

В ролях: Стефен Форсайт, Дагмар Лассандер, Лаура Бетти, Иисус Пуэнте, Феми Бенусси, Антония Мас, Лучиано Пигоцци, Жерар Тиши, Вероника Лимера, Паскуале Фортунато

О фильме:
Джон Харрингтон — «обычный» параноик. Будучи владельцем дома мод в Париже, он испытывает «невинную» тягу к убийству невест или просто девушек, наряженных в подвенечное платье. Этому он посвящает всё своё свободное время, неоднократно рискуя быть пойманным полицией, которая давно уже ищет неуловимого маньяка. Однажды под топор попадает и опостылевшая жена Джона, которая, на свою голову, отказала ему в разводе. И все бы сошло ему с рук и на этот раз, если бы не дотошность полиции и жуткий призрак жены, неожиданно начавший появляться перед Джоном и окружающими.



Страна: Италия, Испания
Продолжительность: 01:28:37
Перевод: Профессиональный (двухголосый закадровый) Film Prestige

Файл
Качество: BDRip-AVC
Видео: 1024x576, 23.976 fps, High@L4.1, ~2149 kbps, 0.152 bit/pixel
Звук: 48 kHz, AC3 Dolby Digital, 2/0 (L,R) ch, ~192 kbps [RUS_DVO]

General
Unique ID : 223919729748124517209547331245860955371 (0xA8755F0B4B920D2EF9B2711AA1C7A4EB)
Complete name : C:UsersUserDesktopТопор для новобрачной_1970_BDRIP-AVC_[-=DoMiNo=-].mkv
Format : Matroska
Format version : Version 4 / Version 2
File size : 1.45 GiB
Duration : 1 h 28 min
Overall bit rate : 2 344 kb/s
Movie name : Il rosso segno della follia
Deion : Джон Харрингтон — «обычный» параноик. Будучи владельцем дома мод в Париже, он испытывает «невинную» тягу к убийству невест или просто девушек, наряженных в подвенечное платье. Этому он посвящает всё своё свободное время, неоднократно рискуя быть пойманным полицией, которая давно уже ищет неуловимого маньяка. / / Однажды под топор попадает и опостылевшая жена Джона, которая, на свою голову, отказала ему в разводе. И все бы сошло ему с рук и на этот раз, если бы не дотошность полиции и жуткий призрак жены, неожиданно начавший появляться перед Джоном и окружающими.
Writing application : XviD4PSP 7.0.451 DAILY
Writing library : Lavf57.71.100
ErrorDetectionType : Per level 1
Attachments : poster.jpg
ACTORS : Stephen Forsyth, Dagmar Lassander, Laura Betti, Jesús Puente, Femi Benussi, Antonia Mas, Luciano Pigozzi, Gérard Tichy, Verónica Llimerá
COUNTRY : Italy, Spain
DATE : 1970-06-02
DIRECTOR : Mario Bava
ENCODING_INFO : MATROSKA,WEBM > MKV Пользовательский / H264 > X264 VBR-2P 2149kbps Пользовательский / AC3 > COPY Безопасное
GENRE : ужасы
HD_VIDEO : 1
Language : und
MEDIA_TYPE : 9
PRODUCER : Manuel Caño
PUBLISHER : Pan Latina Films, Mercury Films
RATING : 6.80
WRITER : Mario Bava, Santiago Moncada
Video
ID : 1
Format : AVC
Format/Info : Advanced Video Codec
Format profile : High@L4.1
Format settings : CABAC / 14 Ref Frames
Format settings, CABAC : Yes
Format settings, ReFrames : 14 frames
Codec ID : V_MPEG4/ISO/AVC
Duration : 1 h 28 min
Bit rate : 2 149 kb/s
Width : 1 024 pixels
Height : 576 pixels
Display aspect ratio : 16:9
Frame rate mode : Constant
Frame rate : 23.976 (24000/1001) FPS
Color space : YUV
Chroma subsampling : 4:2:0
Bit depth : 8 bits
Scan type : Progressive
Bits/(Pixel*Frame) : 0.152
Stream size : 1.30 GiB (90%)
Title : RIP_BY_-=DoMiNo=-
Writing library : x264 core 155 r2901M 7d0ff22
Encoding settings : cabac=1 / ref=14 / deblock=1:-3:-3 / analyse=0x3:0x133 / me=umh / subme=11 / psy=1 / psy_rd=1.00:0.15 / mixed_ref=1 / me_range=48 / chroma_me=1 / trellis=2 / 8x8dct=1 / cqm=0 / deadzone=21,11 / fast_pskip=0 / chroma_qp_offset=-3 / threads=6 / lookahead_threads=1 / sliced_threads=0 / nr=0 / decimate=1 / interlaced=0 / bluray_compat=0 / constrained_intra=0 / bframes=16 / b_pyramid=2 / b_adapt=2 / b_bias=0 / direct=3 / weightb=1 / open_gop=0 / weightp=2 / keyint=240 / keyint_min=24 / scenecut=40 / intra_refresh=0 / rc_lookahead=70 / rc=2pass / mbtree=1 / bitrate=2149 / ratetol=1.0 / qcomp=0.70 / qpmin=0 / qpmax=69 / qpstep=4 / cplxblur=20.0 / qblur=0.5 / vbv_maxrate=50000 / vbv_bufsize=62500 / nal_hrd=none / filler=0 / ip_ratio=1.40 / aq=1:0.90
Language : Italian
Default : Yes
Forced : No
Color range : Limited
Color primaries : BT.709
Transfer characteristics : BT.709
Matrix coefficients : BT.709
Audio
ID : 2
Format : AC-3
Format/Info : Audio Coding 3
Codec ID : A_AC3
Duration : 1 h 28 min
Bit rate mode : Constant
Bit rate : 192 kb/s
Channel(s) : 2 channels
Channel positions : Front: L R
Sampling rate : 48.0 kHz
Frame rate : 31.250 FPS (1536 SPF)
Bit depth : 16 bits
Compression mode : Lossy
Stream size : 122 MiB (8%)
Title : MVO
Language : Russian
Service kind : Complete Main
Default : Yes
Forced : No
Menu
00:00:00.000 : :00:00:00.000
00:09:15.346 : :00:09:15.346
00:20:04.995 : :00:20:04.995
00:27:45.497 : :00:27:45.497
00:34:51.589 : :00:34:51.589
00:42:20.121 : :00:42:20.121
00:51:13.988 : :00:51:13.988
00:59:49.169 : :00:59:49.169
01:08:10.837 : :01:08:10.837
01:20:10.973 : :01:20:10.973


_________________
Проголосуй за трекер Открытый торрент трекер - RUS-MEDIA.ORG

Проголосуй Открытый торрент трекер - RUS-MEDIA.ORG


Вернуться к началу
 Профиль Отправить личное сообщение  
 
   Похожие торренты   Автор   Торрент   Размер 
В этой теме нет новых непрочитанных сообщений. Топор для новобрачной / Il rosso segno della follia [ужасы, триллер, 1970] BDRip, Dvo

salma3

0 | 0

1.45 ГБ

В этой теме нет новых непрочитанных сообщений. Топор для новобрачной / Il rosso segno della follia (1970) BDRip 720p, Dvo

salma3

1 | 13

5.76 ГБ

В этой теме нет новых непрочитанных сообщений. Кроваво-красное / Profondo rosso [ужасы, триллер, детектив, 1975] BDRip 720p, Mvo

salma3

25 | 25

11.68 ГБ

В этой теме нет новых непрочитанных сообщений. Топор для измельчения / Axe to Grind (Мэтт Зеттелл) [Ужасы, триллер, 2015] WEB-DLRip, dvo

Dracon

70 | 7

1.43 ГБ

В этой теме нет новых непрочитанных сообщений. Кроваво-красное / Profondo rosso [Ужасы, триллер, детектив, 1975] BDRemux 1080p, Mvo

salma3

0 | 1

30.52 ГБ

В этой теме нет новых непрочитанных сообщений. Плач Банши / Cry of the Banshee [ужасы, фэнтези, триллер, 1970] BDRip, Avo

salma3

0 | 0

1.45 ГБ

В этой теме нет новых непрочитанных сообщений. [GloryHoleSecrets.com] Della (Della's First Gloryhole Video) [2018 г., 14 cumshots, Bareback, Big Tits, Blondes, Blow Jobs, Busty, Cum in mouth, Cum Swallow, Deepthroat, Fucking, Interracial, MILF, Sex, 1080p]

salma3

11 | 4

2.37 ГБ


Начать новую тему Ответить на тему  [ 1 сообщение ] 




Для Мосгорсуда, Роскомнадзора и рекламодателей:: mosgorsud-torrent[собачка]yandex.ru
cron