COVID-19 - Последняя информация о коронавирусе на сайте Минздрава




Торрент файл
скачать торрент магнет ссылка Добавлен: 21 май 2018, 11:15
Размер: 1.45 ГБ
Сидеров: 0
Личеров: 0
Статус: (salma3)
Автор

СообщениеДобавлено: 21 май 2018, 11:15 

Не в сети
Супермодератор
Аватара пользователя
Дата регистрации:
15 фев 2012, 16:44
Возраст: 31
Спасибо: 8283 / 2148
Сообщения: 96789
Год выпуска: 1986
Выпущено: США, Columbia Pictures Corporation
Жанр: Драма, мелодрама, музыкальный
Режиссер: Уолтер Хилл

В ролях: Ральф Маччио, Джо Сенека, Джейми Герц, Джо Мортон, Роберт Джадд, Стив Вай, Деннис Липском, Гарри Кэри мл., Джон Хэнкок, Аллан Арбас, Гретхен Палмер, Эл Фэнн, Уолли Тейлор, Акошуа Бусиа, Аллан Граф, Диана Беллами

О фильме:
Молодое музыкальное дарование Юджин мечтает о том, что однажды он станет знаменитым блюзовым гитаристом. Единственный, кто может помочь ему в этом, — легенда блюза Вилли Браун. Так, сам того не подозревая, Юджин становится частью плана старого блюзмена по возвращению своей души, проданной когда-то дьяволу за талант музыканта…



Продолжительность: 01:38:29
Перевод: Профессиональный многоголосый, закадровый [Tycoon-Studio]
Субтитры: Русские

Файл
Качество: HDTVRip-AVC
Видео: High@L4.1, ~1715 Кбит/сек, 1008x568, 29.970 кадра/сек
Аудио: AC3, 6 ch, 384 Кбит/сек
General
Unique ID : 228500619482253091178857271827410632862 (0xABE79E58740C66C218822B25902AC09E)
Complete name : F:FILMSПерекресток_1986_HDTVRIP-AVC_[-=DoMiNo=-].mkv
Format : Matroska
Format version : Version 4 / Version 2
File size : 1.45 GiB
Duration : 1 h 38 min
Overall bit rate : 2 103 kb/s
Movie name : Перекресток
Deion : Молодой, честолюбивый гитарист находит легендарного исполнителя блюзов в гарлемской больнице и соглашается помочь ему вернуться домой в обмен на старые и утраченные песни. Великолепные песни Рай Кудера, который в картине сам играет на "блюз-гитаре". На "блюз гармонике" играют Сонни Терри и Джон "Дьюк" Логан. Фильм этот, великолепный сам по себе, имеет культовый успех среди музыкантов и тех, кто любит блюз и рок-н-ролл. Писать о нем бесполезно. Его надо смотреть и слушать. (Иванов М.)
Writing application : XviD4PSP 7.0.451 DAILY
Writing library : Lavf57.71.100
ErrorDetectionType : Per level 1
ACTORS : Ralph Macchio, Joe Seneca, Jami Gertz, Joe Morton, Robert Judd, Steve Vai, Tim Russ, Dennis Lipscomb, Harry Carey, Jr.
COUNTRY : United States
DATE : 1986-03-14
DIRECTOR : Walter Hill
ENCODING_INFO : MATROSKA,WEBM > MKV Пользовательский / MPEG2 > X264 VBR-2P 1715kbps Пользовательский 2 / AC3 > COPY Безопасное
GENRE : драма, музыка, детектив, мелодрама
HD_VIDEO : 1
ITUNEXTC : mpaa|R|400|
MEDIA_TYPE : 9
ORIGINAL_TITLE : Crossroads
PUBLISHER : Columbia Pictures
RATING : 6.90
WRITER : John Fusco
Video
ID : 1
Format : AVC
Format/Info : Advanced Video Codec
Format profile : High@L4.1
Format settings : CABAC / 14 Ref Frames
Format settings, CABAC : Yes
Format settings, ReFrames : 14 frames
Codec ID : V_MPEG4/ISO/AVC
Duration : 1 h 38 min
Bit rate : 1 715 kb/s
Width : 1 008 pixels
Height : 568 pixels
Display aspect ratio : 16:9
Frame rate mode : Constant
Frame rate : 29.970 (30000/1001) FPS
Color space : YUV
Chroma subsampling : 4:2:0
Bit depth : 8 bits
Scan type : Progressive
Bits/(Pixel*Frame) : 0.100
Stream size : 1.16 GiB (80%)
Title : RIP_BY_-=DoMiNo=-
Writing library : x264 core 155 r2901M 7d0ff22
Encoding settings : cabac=1 / ref=14 / deblock=1:-1:-1 / analyse=0x3:0x133 / me=umh / subme=11 / psy=1 / psy_rd=1.00:0.20 / mixed_ref=1 / me_range=56 / chroma_me=1 / trellis=2 / 8x8dct=1 / cqm=0 / deadzone=21,11 / fast_pskip=0 / chroma_qp_offset=-3 / threads=6 / lookahead_threads=1 / sliced_threads=0 / nr=0 / decimate=1 / interlaced=0 / bluray_compat=0 / constrained_intra=0 / bframes=16 / b_pyramid=2 / b_adapt=2 / b_bias=0 / direct=3 / weightb=1 / open_gop=0 / weightp=2 / keyint=300 / keyint_min=30 / scenecut=40 / intra_refresh=0 / rc_lookahead=80 / rc=2pass / mbtree=1 / bitrate=1715 / ratetol=1.0 / qcomp=0.70 / qpmin=0 / qpmax=69 / qpstep=4 / cplxblur=20.0 / qblur=0.5 / vbv_maxrate=50000 / vbv_bufsize=62500 / nal_hrd=none / filler=0 / ip_ratio=1.40 / aq=3:0.80
Default : Yes
Forced : No
Color range : Limited
Audio
ID : 2
Format : AC-3
Format/Info : Audio Coding 3
Codec ID : A_AC3
Duration : 1 h 38 min
Bit rate mode : Constant
Bit rate : 384 kb/s
Channel(s) : 6 channels
Channel positions : Front: L C R, Side: L R, LFE
Sampling rate : 48.0 kHz
Frame rate : 31.250 FPS (1536 SPF)
Bit depth : 16 bits
Compression mode : Lossy
Stream size : 271 MiB (18%)
Title : Многоголосый закадровый - Tycoon
Language : Russian
Service kind : Complete Main
Default : Yes
Forced : No
Text
ID : 3
Format : UTF-8
Codec ID : S_TEXT/UTF8
Codec ID/Info : UTF-8 Plain Text
Language : Russian
Default : Yes
Forced : No


_________________
Проголосуй за трекер Открытый торрент трекер - RUS-MEDIA.ORG

Проголосуй Открытый торрент трекер - RUS-MEDIA.ORG


Скачать книги и аудио книги через торрент


Вернуться к началу
 Профиль Отправить личное сообщение  
 
   Похожие торренты   Автор   Торрент   Размер 
В этой теме нет новых непрочитанных сообщений. Лучший стрелок / Top Gun [боевик, драма, мелодрама, 1986] WEB-DLRip-AVC, Mvo

salma3

0 | 0

2.15 ГБ

В этой теме нет новых непрочитанных сообщений. Перекрестки / Crossroads [Мелодрама, драма, комедия, 2002] WEB-DL 1080p, Dub

salma3

0 | 0

8.78 ГБ

В этой теме нет новых непрочитанных сообщений. Сошедшие с небес [Военный, Драма, Мелодрама, 1986] SATRip-AVC

salma3

0 | 0

1.24 ГБ

В этой теме нет новых непрочитанных сообщений. Дьявол во плоти / Diavolo in corpo [драма, мелодрама, 1986] DVDRip-AVC, Dvo

salma3

0 | 0

2.05 ГБ

В этой теме нет новых непрочитанных сообщений. Ничего общего / Nothing in Common [драма, мелодрама, комедия, 1986] BDRip 720p, Mvo

salma3

0 | 0

6.35 ГБ

В этой теме нет новых непрочитанных сообщений. Шанхайский сюрприз / Shanghai Surprise [драма, мелодрама, криминал, 1986] WEBRip 1080p, Mvo

salma3

0 | 0

9.46 ГБ

В этой теме нет новых непрочитанных сообщений. Лучший стрелок / Top Gun [боевик, драма, мелодрама, 1986] BDRip-HEVC 1080p, Mvo

salma3

20 | 7

5.84 ГБ


Начать новую тему Ответить на тему  [ 1 сообщение ] 




Для Мосгорсуда, Роскомнадзора и рекламодателей:: rstracker[собака]yandex.ru
cron