COVID-19 - Последняя информация о коронавирусе на сайте Минздрава




Торрент файл
скачать торрент магнет ссылка Добавлен: 18 май 2018, 11:10
Размер: 2.14 ГБ
Сидеров: 52
Личеров: 10
Статус: (salma3)
Автор

СообщениеДобавлено: 18 май 2018, 11:10 

Не в сети
Супермодератор
Аватара пользователя
Дата регистрации:
15 фев 2012, 16:44
Возраст: 30
Спасибо: 8263 / 2148
Сообщения: 96287
Год выхода: 2008
Жанр: фэнтези, боевик, приключения
Режиссер: Роб Коэн

В ролях: Брендан Фрейзер, Джет Ли, Мария Белло, Джон Ханна, Мишель Йео, Люк Форд, Изабелла Люн, Энтони Вонг Чау Санг, Расселл Вонг, Лиам Каннингэм

О фильме:
Заколдованный волшебницей, безжалостный китайский император-дракон должен провести вечность в забвении. Его 10 000 воинов превратились в терракотовых воинов. Однако когда искатель приключений Алекс О`Коннелл случайно пробуждает властителя от вечной спячки, он вынужден искать помощи у единственных людей, которые знают, как справиться с воскресшими мертвецами: у своих родителей. Монарх возвращается к жизни, и наши герои понимают, что его сила за эту тысячу лет только увеличилась. Мумия готова поднять всю Азию в борьбе за мировое господство… если О`Коннеллы ее не остановят.



Страна: Германия, США
Продолжительность: 01:53:40
Перевод: Профессиональный (полное дублирование)

Файл
Кодек: H.264
Качество: WEB-DLRip-AVC от SuperMin
Видео: 1024x576 (16:9), 2289 kbps, 23.976 fps
Звук: Русский (AC-3, 6ch, 448 kbps)
General
Unique ID : 220666954208307837281672370754965983902 (0xA602E8D3FC6EFC249F8C87F257FFD29E)
Complete name : F:Мумия (Гробница императора драконов) Open Matte.mkv
Format : Matroska
Format version : Version 4 / Version 2
File size : 2.14 GiB
Duration : 1 h 53 min
Overall bit rate : 2 693 kb/s
Movie name : Мумия: Гробница Императора Драконов / The Mummy: Tomb of the Dragon Emperor (2008) (Open Matte) - #LORDKILL#
Encoded date : UTC 2018-05-18 04:44:19
Writing application : mkvmerge v9.5.0 ('Quiet Fire') 64bit
Writing library : libebml v1.3.4 + libmatroska v1.4.5
Video
ID : 1
Format : AVC
Format/Info : Advanced Video Codec
Format profile : High@L4.1
Format settings, CABAC : Yes
Format settings, ReFrames : 11 frames
Codec ID : V_MPEG4/ISO/AVC
Duration : 1 h 51 min
Bit rate : 2 289 kb/s
Width : 1 024 pixels
Height : 576 pixels
Display aspect ratio : 16:9
Frame rate mode : Constant
Frame rate : 23.976 (24000/1001) FPS
Color space : YUV
Chroma subsampling : 4:2:0
Bit depth : 8 bits
Scan type : Progressive
Bits/(Pixel*Frame) : 0.162
Stream size : 1.79 GiB (84%)
Writing library : x264 core 146 r2538 121396c
Encoding settings : cabac=1 / ref=11 / deblock=1:-2:-2 / analyse=0x3:0x113 / me=umh / subme=11 / psy=1 / psy_rd=1.00:0.15 / mixed_ref=1 / me_range=64 / chroma_me=1 / trellis=2 / 8x8dct=1 / cqm=0 / deadzone=21,11 / fast_pskip=0 / chroma_qp_offset=-3 / threads=12 / lookahead_threads=2 / sliced_threads=0 / nr=0 / decimate=1 / interlaced=0 / bluray_compat=0 / constrained_intra=0 / bframes=8 / b_pyramid=2 / b_adapt=2 / b_bias=0 / direct=1 / weightb=1 / open_gop=0 / weightp=2 / keyint=240 / keyint_min=23 / scenecut=40 / intra_refresh=0 / rc=crf / mbtree=0 / crf=20.0 / qcomp=0.60 / qpmin=0 / qpmax=69 / qpstep=4 / ip_ratio=1.40 / pb_ratio=1.30 / aq=1:1.00
Language : English
Default : Yes
Forced : No
Audio
ID : 2
Format : AC-3
Format/Info : Audio Coding 3
Mode extension : CM (complete main)
Format settings, Endianness : Big
Codec ID : A_AC3
Duration : 1 h 51 min
Bit rate mode : Constant
Bit rate : 448 kb/s
Channel(s) : 6 channels
Channel positions : Front: L C R, Side: L R, LFE
Sampling rate : 48.0 kHz
Frame rate : 31.250 FPS (1536 spf)
Bit depth : 16 bits
Compression mode : Lossy
Stream size : 358 MiB (16%)
Title : Дубляж
Language : Russian
Default : Yes
Forced : No
Text #1
ID : 3
Format : UTF-8
Codec ID : S_TEXT/UTF8
Codec ID/Info : UTF-8 Plain Text
Duration : 1 h 52 min
Bit rate : 6 b/s
Count of elements : 130
Stream size : 5.54 KiB (0%)
Title : forced
Language : Russian
Default : Yes
Forced : No
Text #2
ID : 4
Format : UTF-8
Codec ID : S_TEXT/UTF8
Codec ID/Info : UTF-8 Plain Text
Duration : 1 h 40 min
Bit rate : 73 b/s
Count of elements : 985
Stream size : 54.6 KiB (0%)
Title : full
Language : Russian
Default : No
Forced : No
Text #3
ID : 5
Format : UTF-8
Codec ID : S_TEXT/UTF8
Codec ID/Info : UTF-8 Plain Text
Duration : 1 h 40 min
Bit rate : 39 b/s
Count of elements : 794
Stream size : 29.0 KiB (0%)
Title : Blu-ray
Language : English
Default : No
Forced : No
Text #4
ID : 6
Format : UTF-8
Codec ID : S_TEXT/UTF8
Codec ID/Info : UTF-8 Plain Text
Duration : 1 h 40 min
Bit rate : 42 b/s
Count of elements : 1079
Stream size : 31.6 KiB (0%)
Title : Amazon
Language : English
Default : No
Forced : No


_________________
Проголосуй за трекер Открытый торрент трекер - RUS-MEDIA.ORG

Проголосуй Открытый торрент трекер - RUS-MEDIA.ORG


Скачать книги и аудио книги через торрент


Вернуться к началу
 Профиль Отправить личное сообщение  
 
   Похожие торренты   Автор   Торрент   Размер 
В этой теме нет новых непрочитанных сообщений. Мумия: Гробница Императора Драконов / The Mummy: Tomb of the Dragon Emperor [фэнтези, боевик, триллер, 2008] HDTVRip, Dub [Open Matte]

salma3

13 | 12

1.45 ГБ

В этой теме нет новых непрочитанных сообщений. Мумия: Гробница Императора Драконов / The Mummy: Tomb of the Dragon Emperor [Фэнтези, боевик, триллер, 2008] BDRemux 2160p, Dub [4K]

salma3

0 | 0

55.83 ГБ

В этой теме нет новых непрочитанных сообщений. Мумия: Гробница Императора Драконов / The Mummy: Tomb of the Dragon Emperor [фэнтези, боевик, триллер, 2008] BDRip-HEVC 1080p, Dub [Лицензия]

salma3

17 | 6

5.41 ГБ

В этой теме нет новых непрочитанных сообщений. Мумия / The Mummy [ужасы, фэнтези, боевик, 2017] WEB-DLRip-AVC, Dub [iTunes]

salma3

744 | 299

2.01 ГБ

В этой теме нет новых непрочитанных сообщений. Принц Персии: Пески времени / Prince of Persia: The Sands of Time [фэнтези, боевик, приключения, 2010] WEB-DLRip-AVC, Dub [Open Matte]

salma3

17 | 2

2.91 ГБ

В этой теме нет новых непрочитанных сообщений. Заложница / Taken [Боевик, Триллер, Криминал, 2008] WEB-DLRip-AVC, Dub [Open Matte]

salma3

0 | 0

2.45 ГБ

В этой теме нет новых непрочитанных сообщений. Особо опасен / Wanted [фэнтези, боевик, триллер, 2008] WEB-DLRip, Dub [Open Matte]

salma3

92 | 8

1.45 ГБ


Начать новую тему Ответить на тему  [ 1 сообщение ] 




Для Мосгорсуда, Роскомнадзора и рекламодателей:: rstracker[собака]yandex.ru
cron