Торрент файл
скачать торрент магнет ссылка Добавлен: 19 апр 2011, 19:25
Размер: 699.64 МБ
Сидеров: 12
Личеров: 10
Автор

СообщениеДобавлено: 19 апр 2011, 19:25 

Не в сети
Супермодератор
Аватара пользователя
Дата регистрации:
22 май 2010, 11:03
Возраст: 31
Спасибо: 7513 / 13
Сообщения: 49940
Хатико: Самый верный друг / Hachiko: A Dog's Story


«Подлинная история веры, преданности и вечной любви»

Перевод: Профессиональный (полное дублирование)
Субтитры:отсутствуют
Формат: LowHDRip-AVC, MKV, H.264, AC3

Страна: США, Великобритания
Режиссер: Лассе Халльстрём
Жанр: драма, семейный

Продолжительность: 01:33:14
Год выпуска: 2009

В ролях: Ричард Гир, Джоан Аллен, Кэри-Хироюки Тагава, Сара Ремер, Джейсон Александр, Эрик Авари, Давиния МакФэдден, Робби Саблетт, Кевин ДеКосте, Роб Деньян

Описание: Фильм поставлен по известной правдивой истории, которая произошла в Японии в 20-х годах.
Пес каждый день провожал и встречал своего хозяина на вокзале.
Потом хозяин неожиданно умер, но пес в течение 9 лет КАЖДЫЙ день в 5 часов вечера приходил на вокзал встречать хозяина и ждал его до последнего поезда.
Потом японцы поставили ему памятник на том месте, где он постоянно ждал хозяина.








Видео: 688x368 (1.87:1), 23.976 fps, AVC (x264) , ~918 Kbps avg, 0.15 bit/pixel
Аудио: 48 kHz, AC3, 6 ch, ~128 kbps avg

Рип от:TswetkOFF

Релиз-Группа:



General
Unique ID: 205152944001359856295242439932475715802 (0x9A570511D195D4939008878180D1B0DA)
Complete name: D:\Films\hatiko_[tfile.ru].mkv
Format: Matroska
File size: 700 MiB
Duration: 1h 33mn
Overall bit rate: 1 049 Kbps
Encoded date: UTC 2011-04-14 22:18:20
Writing application: mkvmerge v2.4.0 ('Fumbling Towards Ecstasy') built on Oct 11 2008 20:13:15
Writing library: libebml v0.7.7 + libmatroska v0.8.1

Video
ID: 1
Format: AVC
Format/Info: Advanced Video Codec
Format profile:
Format settings, CABAC: Yes
Format settings, ReFrames: 3 frames
Codec ID: V_MPEG4/ISO/AVC
Duration: 1h 33mn
Bit rate: 918 Kbps
Width: 688 pixels
Height: 368 pixels
Display aspect ratio: 1.870
Frame rate: 23.976 fps
Color space: YUV
Chroma subsampling: 4:2:0
Bit depth: 8 bits
Scan type: Progressive
Bits/(Pixel*Frame): 0.151
Stream size: 600 MiB (86%)
Writing library: x264 core 65 r999kMod cc51047
Encoding settings: cabac=1 / ref=3 / deblock=1:-2:-1 / analyse=0x3:0x133 / me=umh / subme=7 / psy_rd=1.0:0.0 / mixed_ref=1 / me_range=16 / chroma_me=1 / trellis=2 / 8x8dct=1 / cqm=0 / deadzone=21,11 / chroma_qp_offset=-2 / threads=2 / thread_queue=2 / nr=0 / decimate=0 / mbaff=0 / bframes=3 / b_pyramid=0 / b_adapt=1 / b_bias=0 / direct=3 / wpredb=1 / keyint=250 / keyint_min=25 / scenecut=40(pre) / rc=2pass / bitrate=918 / ratetol=1.0 / qcomp=0.60 / qpmin=10 / qpmax=51 / qpstep=4 / cplxblur=20.0 / qblur=0.5 / ip_ratio=1.40 / pb_ratio=1.30 / aq=1:1.00

Audio
ID: 2
Format: AC-3
Format/Info: Audio Coding 3
Mode extension: CM (complete main)
Codec ID: A_AC3
Duration: 1h 33mn
Bit rate mode: Constant
Bit rate: 128 Kbps
Channel(s): 6 channels
Channel positions: Front: L C R, Side: L R, LFE
Sampling rate: 48.0 KHz
Bit depth: 16 bits
Compression mode: Lossy
Stream size: 85.4 MiB (12%)









реклама партнёра


Вернуться к началу
 Профиль Отправить личное сообщение  
 
   Похожие торренты   Автор   Торрент   Размер 
В этой теме нет новых непрочитанных сообщений. Друг мой / О, мой друг! / Oh My Friend [Мелодрама, 2011] HDRip, Mvo [Red Media]

salma3

1 | 2

1.46 ГБ

В этой теме нет новых непрочитанных сообщений. Полуночное солнце / Мой друг Нанук / Midnight Sun / Il Mio Amico Nanuk [приключения, семейный, 2014] WEB-DLRip, Avo

salma3

38 | 1

1.48 ГБ

В этой теме нет новых непрочитанных сообщений. Симон и Малу / Simon & Malou (Тейс Мёльстрём Кристенсен, Лассе Спанг Ольсен) [2009, мелодрама, комедия, DVDRip] Sub

Nickolas3435

21 | 3

733.94 МБ

В этой теме нет новых непрочитанных сообщений. История Золушки / A Cinderella Story [мелодрама, комедия, семейный, 2004] DVDRip, Mvo

salma3

83 | 5

1.37 ГБ

В этой теме нет новых непрочитанных сообщений. Верный шанс / Bank Shot [комедия, криминал, 1974] BDRemux 1080p, Dvo

salma3

2 | 3

17.74 ГБ

В этой теме нет новых непрочитанных сообщений. Мы вернулись! История динозавра / We're Back! A Dinosaur's Story [мультфильм, фэнтези, приключения, семейный, 1993] BDRip 720p, Mvo

salma3

21 | 10

7.62 ГБ

В этой теме нет новых непрочитанных сообщений. История Золушки 4: Если туфелька подойдёт / A Cinderella Story: If the Shoe Fits [фэнтези, семейный, 2016] WEB-DLRip, Mvo

salma3

787 | 103

1.46 ГБ


Начать новую тему Ответить на тему  [ 1 сообщение ] 




Для Мосгорсуда, Роскомнадзора и рекламодателей:: mosgorsud-torrent[собачка]yandex.ru