Торрент файл
скачать торрент магнет ссылка Добавлен: 19 апр 2011, 19:24
Размер: 1.37 ГБ
Сидеров: 16
Личеров: 20
Автор

СообщениеДобавлено: 19 апр 2011, 19:24 

Не в сети
Супермодератор
Аватара пользователя
Дата регистрации:
22 май 2010, 11:03
Возраст: 31
Спасибо: 7509 / 13
Сообщения: 49940
[b]Фанфан-тюльпан / Fanfan la tulipe[/b]


Перевод: Профессиональный (полное дублирование), cубтитры: отсутствуют
Формат: DVDRip-AVC, MKV, H.264, AC3
Страна: Франция
Режиссер: Жерар Кравчик
Жанр: комедия, мелодрама, приключения
Продолжительность: 01:34:31
Год выпуска: 2003
В ролях: Венсан Перес, Пенелопа Крус, Дидье Бурдон, Элен де Фужроль, Мишель Мюллер, Филипп Дормуа, Жак Франц, Жеральд Ларош, Гийом Гальенн, Жиль Арбона.

Описание:
В прекрасной стране Франции в середине XVIII-го века жизнь была счастливой, женщины доступными, а мужчины занимались своим любимым делом, то есть войной. Развлечение для королей, в котором участвовал также и народ.
Дабы избежать женитьбы, молодой авантюрист и волокита Фанфан записывается в армию Людовика XV-го. Агитируя Фанфана в рекруты, Аделина, дочь сержанта, занимающегося набором солдат в армию, предсказывает юноше, что его ждёт продвижение по службе и что его даже полюбит дочь короля.
По дороге к лагерю Аквитанского полка Фанфан вступает в схватку с бандой грабителей, напавших на карету. Как выясняется позже, в карете находились мадам де Помпадур и Генриетта, дочь короля. Фанфан понимает, что предсказание Аделины уже начинает сбываться.
Абсурдность военной стратегии, храбрость Фанфана и масса других приключений несколько усложняют путь героя к осуществлению предсказанного. С риском для собственной жизни Фанфану удается раскрыть коварный заговор. Это принесет ему славу, нежданную любовь и уверенность в том, что человек может стать творцом своей судьбы.




Видео: 704x288 (2.4:1), 25 fps, х264 ~1600 kbps avg, 0.319 bit/pixel
Аудио: Русский: 48 kHz, AC3 Dolby Digital, 3/2 (L,C,R,l,r) + LFE ch, ~448 kbps [Профессиональный (полное дублирование)]

General
UniqueID: 184438788934870045583601828797332170651 (0x8AC19E5FF3D46315842678752D71A79B)
Complete name: WWWWWWW
Format: Matroska
File size: 1.37 GiB
Duration: 1h 34mn
Overall bit rate: 2 068 Kbps
Encoded date: UTC 2011-03-31 19:25:57
Writing application: mkvmerge v4.0.0 ('The Stars were mine') сборка от Jun6 2010 16:18:42
Writing library: libebml v1.0.0 + libmatroska v1.0.0

Video
ID: 1
Format: AVC
Format/Info: Advanced Video Codec
Format profile:
Format settings, CABAC: Yes
Format settings, ReFrames: 3 frames
Format settings, GOP: M=4, N=16
Codec ID: V_MPEG4/ISO/AVC
Duration: 1h 34mn
Bit rate mode: Variable
Bit rate: 1 618 Kbps
Maximum bit rate: 14.0 Mbps
Width: 704 pixels
Height: 288 pixels
Display aspect ratio: 2.40:1
Frame rate: 25.000 fps
Color space: YUV
Chroma subsampling: 4:2:0
Bit depth: 8 bits
Scan type: Progressive
Bits/(Pixel*Frame): 0.319
Stream size: 1.04 GiB (76%)
Writing library: x264 core 114 r1913 5fd3dce
Encoding settings: cabac=1 / ref=4 / deblock=1:-1:-1 / analyse=0x3:0x113 / me=hex / subme=7 / psy=1 / psy_rd=1.00:0.15 / mixed_ref=1 / me_range=16 / chroma_me=1 / trellis=1 / 8x8dct=1 / cqm=1 / deadzone=21,11 / fast_pskip=1 / chroma_qp_offset=-3 / threads=3 / sliced_threads=0 / slices=4 / nr=0 / decimate=1 / interlaced=0 / constrained_intra=0 / bframes=3 / b_pyramid=1 / b_adapt=1 / b_bias=0 / direct=1 / weightb=1 / open_gop=0 / weightp=0 / keyint=24 / keyint_min=2 / scenecut=40 / intra_refresh=0 / rc_lookahead=25 / rc=2pass / mbtree=1 / bitrate=1618 / ratetol=1.0 / qcomp=0.60 / qpmin=10 / qpmax=51 / qpstep=4 / cplxblur=20.0 / qblur=0.5 / vbv_maxrate=14000 / vbv_bufsize=14500 / nal_hrd=vbr / ip_ratio=1.40 / aq=1:1.00
Language: English
Color primaries: BT.709-5, BT.1361, IEC 61966-2-4, SMPTE RP177
Transfer characteristics: BT.709-5, BT.1361
Matrix coefficients: BT.709-5, BT.1361, IEC 61966-2-4 709, SMPTE RP177

Audio
ID: 2
Format: AC-3
Format/Info: Audio Coding 3
Mode extension: CM (complete main)
Codec ID: A_AC3
Duration: 1h 34mn
Bit rate mode: Constant
Bit rate: 448 Kbps
Channel(s): 6 channels
Channel positions: Front: L C R, Side: L R, LFE
Sampling rate: 48.0 KHz
Bit depth: 16 bits
Compression mode: Lossy
Stream size: 303 MiB (22%)







Раздаю медленно, но настойчиво!

Релиз группы: rip by mimigen




реклама партнёра


Вернуться к началу
 Профиль Отправить личное сообщение  
 
   Похожие торренты   Автор   Торрент   Размер 
В этой теме нет новых непрочитанных сообщений. Героини / Heroines (Жерар Кравчик / Gérard Krawczyk) [1997г., Франция, драма, музыка, BDRip-AVC] avo

Alfredovich

9 | 0

2.27 ГБ

В этой теме нет новых непрочитанных сообщений. Тюльпан / Tulpan (Сергей Дворцевой) [2008, Мелодрама, комедия, DVDRip]

Nickolas3435

101 | 1

1.45 ГБ

В этой теме нет новых непрочитанных сообщений. Лиззи Магуайр / The Lizzie McGuire Movie [мелодрама, комедия, приключения, 2003] WEB-DLRip, Mvo [Лицензия]

salma3

21 | 5

1.45 ГБ

В этой теме нет новых непрочитанных сообщений. Вызов / Мексиканские приключения / The Challenge [Комедия, 2003] DVDRip, Mvo

salma3

109 | 4

1.46 ГБ

В этой теме нет новых непрочитанных сообщений. Воздержаться от мужчин / Manfast [мелодрама, комедия, 2003] DVDRip, Mvo

salma3

177 | 20

1.34 ГБ

В этой теме нет новых непрочитанных сообщений. Он Никогда Не Умирал / He Never Died (Джейсон Кравчик / Jason Krawczyk) [2015г., США, триллер, комедия, нуар, WEB-DLRip] DVO

Alfredovich

153 | 6

2.11 ГБ

В этой теме нет новых непрочитанных сообщений. Имбирь и корица / Dillo con parole mie [Мелодрама, комедия, 2003] DVDRip, Dvo

salma3

21 | 3

1.45 ГБ


Начать новую тему Ответить на тему  [ 1 сообщение ] 




Для Мосгорсуда, Роскомнадзора и рекламодателей:: mosgorsud-torrent[собачка]yandex.ru