Торрент файл
скачать торрент магнет ссылка Добавлен: 23 апр 2018, 21:03
Размер: 1.41 ГБ
Сидеров: 243
Личеров: 73
Статус: (salma3)
Автор

СообщениеДобавлено: 23 апр 2018, 21:03 

Не в сети
Супермодератор
Аватара пользователя
Дата регистрации:
15 фев 2012, 16:44
Возраст: 28
Спасибо: 7226 / 2147
Сообщения: 68270
Год выхода: 2018
Жанр: Драма, криминал
Режиссер: Фатих Акин

В ролях: Дайан Крюгер, Денис Москитто, Нуман Аджар, Самия Мюриэль Шанкрен, Йоханнес Криш, Ульрих Тукур, Ульрих Брандхофф, Ханна Хильсдорф, Джем Акын, Йула Будали и другие

О фильме:
Идеальная жизнь Кати в один миг превратилась в руины — в результате террористического акта погибли её муж и сын. Друзья и семья пытаются остановить её слезы, помочь найти силы жить одной. В безумном поиске виновников бессмысленного убийства Катя не находит справедливости. И после долгой скорби, в абсолютном бессилии она идёт на радикальные меры.



Страна: Великобритания
Продолжительность: 01:46:39
Перевод: Любительский (двухголосый закадровый) | HiWay Grope

Файл
Качество: WEBRip
Видео: 720x304, 23.976 fps, 73 ~1496 kbps, 0.28 bit/pixel
Аудио rus: AC3, 48 kHz, 6 ch, 384 Kbps

Семпл

General
Complete name : E:In.The.Fade.2018.WEBRip.HiWayGropeIn.The.Fade.2018.WEBRip.HiWayGrope.avi
Format : AVI
Format/Info : Audio Video Interleave
File size : 1.41 GiB
Duration : 1h 46mn
Overall bit rate : 1 890 Kbps
Writing application : VirtualDubMod 1.5.10.3 (build 2550/release)
Writing library : VirtualDubMod build 2550/release

Video
ID : 0
Format : MPEG-4 Visual
Format profile : Advanced Simple@L5
Format settings, BVOP : 1
Format settings, QPel : No
Format settings, GMC : No warppoints
Format settings, Matrix : Default (MPEG)
Codec ID : XVID
Codec ID/Hint : XviD
Duration : 1h 46mn
Bit rate : 1 497 Kbps
Width : 720 pixels
Height : 304 pixels
Display aspect ratio : 2.35:1
Frame rate : 23.976 (23976/1000) fps
Color space : YUV
Chroma subsampling : 4:2:0
Bit depth : 8 bits
Scan type : Progressive
Compression mode : Lossy
Bits/(Pixel*Frame) : 0.285
Stream size : 1.12 GiB (79%)
Writing library : XviD 73

Audio
ID : 1
Format : AC-3
Format/Info : Audio Coding 3
Mode extension : CM (complete main)
Format settings, Endianness : Big
Codec ID : 2000
Duration : 1h 46mn
Bit rate mode : Constant
Bit rate : 384 Kbps
Channel(s) : 6 channels
Channel positions : Front: L C R, Side: L R, LFE
Sampling rate : 48.0 KHz
Frame rate : 31.250 fps (1536 spf)
Compression mode : Lossy
Stream size : 293 MiB (20%)
Alignment : Split accross interleaves
Interleave, duration : 42 ms (1.00 video frame)
Interleave, preload duration : 500 ms


Реклама: присутствует


_________________
Проголосуй за трекер Открытый торрент трекер - RUS-MEDIA.ORG

Проголосуй Открытый торрент трекер - RUS-MEDIA.ORG


Вернуться к началу
 Профиль Отправить личное сообщение  
 
   Похожие торренты   Автор   Торрент   Размер 
В этой теме нет новых непрочитанных сообщений. На пределе / In The Fade / Aus dem Nichts [Драма, криминал, 2018] WEBRip 720p, Dvo

salma3

204 | 39

2.89 ГБ

В этой теме нет новых непрочитанных сообщений. На пределе / In the Fade / Aus dem Nichts [Драма, криминал, 2017] BDRip, Dvo

salma3

272 | 35

1.41 ГБ

В этой теме нет новых непрочитанных сообщений. На пределе / In the Fade / Aus dem Nichts [Драма, криминал, 2017] BDRip, Mvo [iTunes]

salma3

45 | 14

745.41 МБ

В этой теме нет новых непрочитанных сообщений. Порядочный человек / Nichts passiert [драма, криминал, 2015] DVDRip, Mvo

salma3

105 | 28

1.37 ГБ

В этой теме нет новых непрочитанных сообщений. Порядочный человек / Nichts passiert [драма, криминал, 2015] DVDRip, Mvo

salma3

49 | 15

699.88 МБ

В этой теме нет новых непрочитанных сообщений. Лед / Ice [S02] [Драма, криминал, 2018] WEBRip, Mvo [OmskBird]

salma3

0 | 0

7.05 ГБ

В этой теме нет новых непрочитанных сообщений. Лед / Ice [S02] [Драма, криминал, 2018] WEBRip 720p, Mvo [OmskBird]

salma3

0 | 0

11.19 ГБ


Начать новую тему Ответить на тему  [ 1 сообщение ] 




Для Мосгорсуда, Роскомнадзора и рекламодателей:: mosgorsud-torrent[собачка]yandex.ru
cron