Торрент файл
скачать торрент магнет ссылка Добавлен: 19 апр 2011, 17:38
Размер: 2.04 ГБ
Сидеров: 28
Личеров: 6
Автор

СообщениеДобавлено: 19 апр 2011, 17:38 

Не в сети
Супермодератор
Аватара пользователя
Дата регистрации:
22 май 2010, 11:03
Возраст: 31
Спасибо: 7508 / 13
Сообщения: 49940
Интимный словарь / The Sleeping Dictionary



Перевод: Профессиональный (многоголосый, закадровый)
Субтитры: русские, английские
Формат: DVDRip-AVC, MKV, H.264, AC3
Страна: США
Режиссер: Гай Дженкин
Жанр: драма, мелодрама
Продолжительность: 01:49:26
Год выпуска: 2003

В ролях: Джессика Альба, Бренда Блетин, Боб Хоскинс, Эмили Мортимер, Хью Дэнси

Описание: Прекрасная островитянка становится добровольной наложницей английского чиновника. Девушек, подобных нашей героине, называют «интимными словарями»: они помогают колонистам осваивать местный язык и обычаи — в постели. Но на этот раз между обворожительным «интимным словарем» и ее хозяином вспыхивает любовь.
К несчастью, влюбленных безжалостно разлучают. Спустя год молодой человек возвращается из Англии уже с женой, но прошлое вторгается в его жизнь и все меняет…


Рейтинг на КиноПоиске: 7.422
Рейтинг на IMDB: 6.6/10
Рейтинг на MPAA: R

Видео: 712х462 (16:9), 23.976 fps,MPEG-4 AVC ~1725 kbps avg, 0.219 bit/pixel
Аудио #1: русский 48 kHz, AC3, 6 ch, ~448 kbps avg [Профессиональный (многоголосый закадровый)]
Аудио #2: английский 48 kHz, AC3, 6 ch, ~448 kbps avg [Оригинал]

Слоган: «Learn to speak her language.» / «Научись говорить на ее языке».

Из отзывов…


Общее
Уникальный идентификатор: 250452566093186718523092347295304476108 (0xBC6B68E00D17D6D28DC6495654A365CC)
Полное имя: T:\Video\Intimnyj_slovar.2003.H264.DVDRip-AVC.mkv
Формат: Matroska
Размер файла: 2,04 Гбайт
Продолжительность: 1 ч. 49 м.
Общий поток: 2674 Кбит/сек
Дата кодирования: UTC 2010-11-01 16:49:13
Программа кодирования: mkvmerge v3.4.0 ('Rapunzel') built on May 15 2010 09:38:20
Библиотека кодирования: libebml v0.8.0 + libmatroska v0.9.0

Видео
Идентификатор: 1
Формат: AVC
Формат/Информация: Advanced Video Codec
Профиль формата:
Параметр CABAC формата: Да
Параметр ReFrames формата: 13 кадры
Идентификатор кодека: V_MPEG4/ISO/AVC
Продолжительность: 1 ч. 49 м.
Битрейт: 1725 Кбит/сек
Ширина: 712 пикс.
Высота: 462 пикс.
Соотношение сторон: 16:9
Соотношение сторон в оригинале: 16:9
Частота кадров: 23,976 кадр/сек
Цветовое пространство: YUV
Подвыборка цветности: 4:2:0
Битовая глубина: 8 бит
Тип развёртки: Прогрессивная
Бит/(Пиксели*Кадры): 0.219
Размер потока: 1,32 Гбайт (65%)
Библиотека кодирования: x264 core 107 r1745 4785e8e
Настройки программы: cabac=1 / ref=13 / deblock=1:-3:-1 / analyse=0x3:0x113 / me=umh / subme=10 / psy=1 / psy_rd=1.00:0.20 / mixed_ref=1 / me_range=32 / chroma_me=1 / trellis=2 / 8x8dct=1 / cqm=0 / deadzone=21,11 / fast_pskip=1 / chroma_qp_offset=-3 / threads=4 / sliced_threads=0 / nr=0 / decimate=1 / interlaced=0 / constrained_intra=0 / bframes=9 / b_pyramid=2 / b_adapt=2 / b_bias=0 / direct=1 / weightb=1 / open_gop=0 / weightp=2 / keyint=250 / keyint_min=23 / scenecut=40 / intra_refresh=0 / rc=crf / mbtree=0 / crf=18.4 / qcomp=0.70 / qpmin=10 / qpmax=51 / qpstep=4 / ip_ratio=1.40 / pb_ratio=1.20 / aq=2:1.10
Язык: English
Коэффициенты матрицы: BT.470-6 System B, BT.470-6 System G, BT.601-6 625, BT.1358 625, BT.1700 625 PAL, BT.1700 625 SECAM, IEC 61966-2-4 601

Аудио #1
Идентификатор: 2
Формат: AC-3
Формат/Информация: Audio Coding 3
Расширение режима: CM (complete main)
Идентификатор кодека: A_AC3
Продолжительность: 1 ч. 49 м.
Вид битрейта: Постоянный
Битрейт: 448 Кбит/сек
Канал(ы): 6 канала(ов)
Расположение каналов: Front: L C R, Side: L R, LFE
Частота: 48,0 КГц
Битовая глубина: 16 бит
Метод сжатия: С потерями
Размер потока: 351 Мбайт (17%)
Заголовок: MVO
Язык: Russian

Аудио #2
Идентификатор: 3
Формат: AC-3
Формат/Информация: Audio Coding 3
Расширение режима: CM (complete main)
Идентификатор кодека: A_AC3
Продолжительность: 1 ч. 49 м.
Вид битрейта: Постоянный
Битрейт: 448 Кбит/сек
Канал(ы): 6 канала(ов)
Расположение каналов: Front: L C R, Side: L R, LFE
Частота: 48,0 КГц
Битовая глубина: 16 бит
Метод сжатия: С потерями
Размер потока: 351 Мбайт (17%)
Язык: English

Текст #1
Идентификатор: 4
Формат: UTF-8
Идентификатор кодека: S_TEXT/UTF8
Идентификатор кодека/Информация: UTF-8 Plain Text
Язык: Russian

Текст #2
Идентификатор: 5
Формат: UTF-8
Идентификатор кодека: S_TEXT/UTF8
Идентификатор кодека/Информация: UTF-8 Plain Text
Язык: English

Меню
00:00:00.000: :1. Welcome to Sarawak/Title
00:05:20.334: :2. To Refuse Is to Insult
00:12:18.668: :3. How to Learn the Language
00:17:32.835: :4. Playing A Joke on Truscott
00:20:03.835: :5. A Chance at Reemployment
00:24:00.502: :6. The Dance of an Englishman
00:26:56.669: :7. Education Like Oxygen
00:30:52.169: :8. The School of Love
00:36:46.669: :9. An English Officer's Duty
00:40:45.370: :10. Sorting out Disputes
00:43:42.503: :11. A Reasonably Sudden Offer
00:47:43.837: :12. Mystery Epidemic
00:52:18.870: :13. "Tell Them"
00:55:31.537: :14. Marriage Plans
00:57:08.338: :15. The Way Things Are Done
01:01:35.206: :16. One Year Later/Start Over
01:05:27.873: :17. All About Selima
01:08:12.540: :18. How to Judge A Man
01:11:20.540: :19. "I Want to See My Son"
01:14:42.874: :20. Wrecking Another Generation
01:19:29.541: :21. Judge, Jury and Liberator
01:24:52.175: :22. Cecil's Announcement
01:28:08.509: :23. Happy Enough
01:32:57.676: :24. The Many Long Goodbyes
01:37:20.544: :25. The Hunt for John Truscott
01:41:13.844: :26. Moving On
01:44:11.211: :27. End Credits















реклама партнёра


Вернуться к началу
 Профиль Отправить личное сообщение  
 
   Похожие торренты   Автор   Торрент   Размер 
В этой теме нет новых непрочитанных сообщений. Интимный словарь / The Sleeping Dictionary [драма, мелодрама, 2003] WEB-DL 1080p, Dvo+Sub

salma3

231 | 25

4.53 ГБ

В этой теме нет новых непрочитанных сообщений. Интимный словарь / The Sleeping Dictionary [драма, мелодрама, 2003] WEB-DLRip, Dvo+Sub

salma3

0 | 1

2.18 ГБ

В этой теме нет новых непрочитанных сообщений. Каникулы мечты / What We Did on Our Holiday (Энди Хэмилтон, Гай Дженкин) [Драма, Комедия, 2014] HDRip, Mvo

Dracon

116 | 2

1.46 ГБ

В этой теме нет новых непрочитанных сообщений. Каникулы мечты / What We Did on Our Holiday (Энди Хэмилтон, Гай Дженкин) [Драма, Комедия, 2014] Blu-Ray 1080p, Mvo [Лицензия]

Dracon

56 | 18

21.41 ГБ

В этой теме нет новых непрочитанных сообщений. Каникулы мечты / What We Did On Our Holiday (Энди Хэмилтон, Гай Дженкин) [Драма, Комедия, 2014] BDRip 720p, Mvo+Sub

Dracon

489 | 15

4.47 ГБ

В этой теме нет новых непрочитанных сообщений. Каникулы мечты / What We Did on Our Holiday (Энди Хэмилтон, Гай Дженкин) [Драма, Комедия, 2014] BDRip 1080p, Mvo+Sub [Лицензия]

Dracon

69 | 5

8.01 ГБ

В этой теме нет новых непрочитанных сообщений. Интимный незнакомец / Intimate Stranger [Триллер, 1991] DVDRip, Mvo

salma3

3 | 5

1.46 ГБ


Начать новую тему Ответить на тему  [ 1 сообщение ] 




Для Мосгорсуда, Роскомнадзора и рекламодателей:: mosgorsud-torrent[собачка]yandex.ru