Торрент файл
скачать торрент магнет ссылка Добавлен: 19 апр 2011, 17:25
Размер: 1.46 ГБ
Сидеров: 139
Личеров: 5
Автор

СообщениеДобавлено: 19 апр 2011, 17:25 

Не в сети
Супермодератор
Аватара пользователя
Дата регистрации:
22 май 2010, 11:03
Возраст: 31
Спасибо: 7509 / 13
Сообщения: 49940
[b]Прошлой ночью в Нью-Йорке / Last Night[/b]


«Куда приводят желания»

Перевод: Профессиональный (полное дублирование) [Лицензия]
Субтитры: отсутствуют
Формат: DVDRip-AVC, MKV, H.264, AC3
Страна: США, Франция, Gaumont
Режиссер: Мэсси Таджедин / Massy Tadjedin
Жанр: драма, мелодрама
Продолжительность: 01:28:22
Год выпуска: 2010

В ролях: Кира Найтли, Сэм Уортингтон, Ева Мендес, Гийом Кане, Энсон Маунт, Гриффин Данн, Стефани Романов, Скотт Эдсит, Дэниэл Эрик Голд, Джастин Котсонас

Описание: Молодожены Майкл и Джоанна - красивы, успешны, живут в огромной квартире центра Манхеттена, но всего одна ночь заставит их усомниться друг в друге....
За день до нее на вечеринке Джоанне всего на мгновение покажется, что Майкл неравнодушен к симпатичной Лауре, своей новой сотруднице, с которой ему предстоит отправиться в командировку.... И когда на следующее утро неподалеку от дома Джоанна встретит своего бывшего возлюбленного, французского драматурга Алекса, она примет его предложение поужинать, не задумываясь....
Так начнется долгая ночь, которая станет для Джоанны и Майкла настоящим испытанием в супружеской верности....


|

Видео: 720x432@1024x432 (2.37:1), 25 fps, V_MPEG4 (x264), ~1972 kb/s, 0.25 bit/pixel
Аудио: 48 kHz, AC3 Dolby Digital, 3/2 (L,C,R,l,r) + LFE ch, ~384 kbps
General
Unique ID : 170248471688465341301736615815671373603 (0x8014A9B7D1898D01B0B8B19889BADF23)
Complete name : I:\Other\Proshloj.nochju.v.Nju-Jorke.2010.x264.Dub.DVDRip.Vaippp.mkv
Format : Matroska
File size : 1.46 GiB
Duration : 1h 28mn
Overall bit rate : 2 357 Kbps
Movie name : Last Night (2010) Release by Vaippp
Encoded date : UTC 2011-02-17 04:30:50
Writing application : mkvmerge v4.4.0 ('Die Wiederkehr') сборка от Oct 31 2010 21:52:48
Writing library : libebml v1.0.0 + libmatroska v1.0.0
Video
ID : 1
Format : AVC
Format/Info : Advanced Video Codec
Format profile :
Format settings, CABAC : Yes
Format settings, ReFrames : 9 frames
Codec ID : V_MPEG4/ISO/AVC
Duration : 1h 28mn
Bit rate : 1 972 Kbps
Width : 720 pixels
Height : 432 pixels
Display aspect ratio : 2.35:1
Frame rate : 25.000 fps
Color space : YUV
Chroma subsampling : 4:2:0
Bit depth : 8 bits
Scan type : Progressive
Bits/(Pixel*Frame) : 0.254
Stream size : 1.19 GiB (82%)
Title : DVDRip by Vaippp
Writing library : x264 core 112 r1867 22bfd31
Encoding settings : cabac=1 / ref=9 / deblock=1:-2:-1 / analyse=0x3:0x113 / me=umh / subme=9 / psy=1 / psy_rd=1.00:0.15 / mixed_ref=1 / me_range=32 / chroma_me=1 / trellis=1 / 8x8dct=1 / cqm=0 / deadzone=21,11 / fast_pskip=0 / chroma_qp_offset=-3 / threads=4 / sliced_threads=0 / nr=0 / decimate=1 / interlaced=0 / constrained_intra=0 / bframes=8 / b_pyramid=2 / b_adapt=2 / b_bias=0 / direct=3 / weightb=1 / open_gop=0 / weightp=2 / keyint=250 / keyint_min=25 / scenecut=40 / intra_refresh=0 / rc_lookahead=60 / rc=2pass / mbtree=1 / bitrate=1972 / ratetol=1.0 / qcomp=0.60 / qpmin=10 / qpmax=51 / qpstep=4 / cplxblur=20.0 / qblur=0.5 / ip_ratio=1.40 / aq=1:1.00 / zones=124483,132562,q=37
Language : English
Audio
ID : 2
Format : AC-3
Format/Info : Audio Coding 3
Mode extension : CM (complete main)
Codec ID : A_AC3
Duration : 1h 28mn
Bit rate mode : Constant
Bit rate : 384 Kbps
Channel(s) : 6 channels
Channel positions : Front: L C R, Side: L R, LFE
Sampling rate : 48.0 KHz
Bit depth : 16 bits
Compression mode : Lossy
Stream size : 243 MiB (16%)
Title : Дубляж R5
Language : Russian







реклама партнёра


Вернуться к началу
 Профиль Отправить личное сообщение  
 
   Похожие торренты   Автор   Торрент   Размер 
В этой теме нет новых непрочитанных сообщений. Что случилось прошлой ночью / About Last Night... [драма, мелодрама, комедия, 1986] BDRip 720p, Dub

salma3

67 | 38

4.98 ГБ

В этой теме нет новых непрочитанных сообщений. Что случилось прошлой ночью / About Last Night [мелодрама, комедия, 2014] HDRip, Mvo [iTunes]

Dracon

1412 | 45

1.46 ГБ

В этой теме нет новых непрочитанных сообщений. Что случилось прошлой ночью / About Last Night [мелодрама, комедия, 2014] BDRip 1080p, Mvo+Sub [iTunes]

Dracon

3 | 2

10.43 ГБ

В этой теме нет новых непрочитанных сообщений. Что случилось прошлой ночью / About Last Night (Стив Пинк) [2014, Мелодрама, комедия, HDRip | iTunes] mvo

Nickolas3435

243 | 9

748.46 МБ

В этой теме нет новых непрочитанных сообщений. Прошлой ночью / Ночь после тусовки / The Night Before [Комедия, приключения, 1988] DVDRip, Mvo+Avo

salma3

74 | 9

1.46 ГБ

В этой теме нет новых непрочитанных сообщений. Прошлой ночью / The Night Before [комедия, 1988] DVD5, Mvo+Avo

salma3

9 | 3

3.51 ГБ

В этой теме нет новых непрочитанных сообщений. Тьма была ночью / Dark Was the Night (Джек Хеллер) [ужасы, триллер, драма, 2014] WEB-DLRip, dvo

Dracon

1491 | 36

1.45 ГБ


Начать новую тему Ответить на тему  [ 1 сообщение ] 




Для Мосгорсуда, Роскомнадзора и рекламодателей:: mosgorsud-torrent[собачка]yandex.ru