Торрент файл
скачать торрент магнет ссылка Добавлен: 19 апр 2011, 17:24
Размер: 2.51 ГБ
Сидеров: 18
Личеров: 5
Автор

СообщениеДобавлено: 19 апр 2011, 17:24 

Не в сети
Супермодератор
Аватара пользователя
Дата регистрации:
22 май 2010, 11:03
Возраст: 32
Спасибо: 7690 / 13
Сообщения: 49871
Добро пожаловать к Райли / Welcome to the Rileys



Перевод: Любительский (одноголосый), cубтитры: есть (русские, английские)
Формат: HDRip, MKV, AVC, AC3
Страна: США, Великобритания
Режиссер: Джейк Скотт
Жанр: драма

Продолжительность: 01:50:49

Год выпуска: 2010

В ролях: Джеймс Гандольфини, Кристен Стюарт, Мелисса Лео, Джо Крест, Элли Шиди, Тиффани Коути, Эйза Дэвис, Лэнс Э. Николс, Пегги Уолтон-Уокер, Шарон Ландри

Описание: Муж и жена отдаляются друг от друга после смерти дочери, пара не может разрушить горький порочный круг, но получает второй шанс благодаря знакомству с несчастной девушкой Мэллори, вставшей на пути саморазрушения.

Рейтинг :
Рейтинг MPAA: R

Видео: 976 x 526 (1.856), V_MPEG4/ISO/AVC, , 23.976 fps, 2289 Kbps 0.186 bit/pixel

Аудио #1: Русский 48 kHz, AC3 , 3/2 (L,C,R,l,r) + LFE ch, 448 Kbps [Любительский (одноголосый, закадровый)]
Аудио #2:Английский 48 kHz, AC3 , 3/2 (L,C,R,l,r) + LFE ch, 448 Kbps [Оригинал]



General
Unique ID: 254338643892565498310795966143241614312 (0xBF57D74DA90EB3338169D494B07F73E8)
Complete name: D:\ФИЛЬМЫ\Dobro_pozhalovat_k_Rayli_[tfile.ru].mkv
Format: Matroska
File size: 2.51 GiB
Duration: 1h 50mn
Overall bit rate: 3 250 Kbps
Movie name: Добро пожаловать к Райли / Welcome to the Rileys (2010) HDRip-AVC
Encoded date: UTC 2011-01-28 18:19:02
Writing application: mkvmerge v2.3.0 ('Freak U') built on Sep8 2008 18:32:16
Writing library: libebml v0.7.7 + libmatroska v0.8.1

Video
ID: 1
Format: AVC
Format/Info: Advanced Video Codec
Format profile:
Format settings, CABAC: Yes
Format settings, ReFrames: 4 frames
Codec ID: V_MPEG4/ISO/AVC
Duration: 1h 50mn
Bit rate: 2 289 Kbps
Width: 976 pixels
Height: 526 pixels
Display aspect ratio: 1.856
Frame rate: 23.976 fps
Color space: YUV
Chroma subsampling: 4:2:0
Bit depth: 8 bits
Scan type: Progressive
Bits/(Pixel*Frame): 0.186
Stream size: 1.77 GiB (70%)

Language: English

Audio #1
ID: 2
Format: AC-3
Format/Info: Audio Coding 3
Mode extension: CM (complete main)
Codec ID: A_AC3
Duration: 1h 50mn
Bit rate mode: Constant
Bit rate: 448 Kbps
Channel(s): 6 channels
Channel positions: Front: L C R, Side: L R, LFE
Sampling rate: 48.0 KHz
Bit depth: 16 bits
Compression mode: Lossy
Delay relative to video: 5ms
Stream size: 355 MiB (14%)

Language: Russian

Audio #2
ID: 3
Format: AC-3
Format/Info: Audio Coding 3
Mode extension: CM (complete main)
Codec ID: A_AC3
Duration: 1h 50mn
Bit rate mode: Constant
Bit rate: 448 Kbps
Channel(s): 6 channels
Channel positions: Front: L C R, Side: L R, LFE
Sampling rate: 48.0 KHz
Bit depth: 16 bits
Compression mode: Lossy
Delay relative to video: 5ms
Stream size: 355 MiB (14%)

Language: English

Text #1
ID: 4
Format: UTF-8
Codec ID: S_TEXT/UTF8
Codec ID/Info: UTF-8 Plain Text

Language: English

Text #2
ID: 5
Format: UTF-8
Codec ID: S_TEXT/UTF8
Codec ID/Info: UTF-8 Plain Text

Language: Russian



















реклама партнёра


Вернуться к началу
 Профиль Отправить личное сообщение  
 
   Похожие торренты   Автор   Торрент   Размер 
В этой теме нет новых непрочитанных сообщений. Добро пожаловать в Сараево / Welcome to Sarajevo [драма, военный, 1997] HDRip, Dvo

salma3

26 | 4

1.45 ГБ

В этой теме нет новых непрочитанных сообщений. Добро пожаловать ко мне / Welcome to Me (Шира Пивен) [Драма, мелодрама, 2014] HDRip, avo

Dracon

0 | 0

1.37 ГБ

В этой теме нет новых непрочитанных сообщений. Добро пожаловать в ПОП / Pop Redemption [комедия, 2013] HDRip, Mvo [лицензия]

Dracon

6 | 2

1.46 ГБ

В этой теме нет новых непрочитанных сообщений. Добро пожаловать в рай  / Vice (Брайан А Миллер) [Фантастика, боевик, триллер, приключения, 2015] HDRip, dvo

Dracon

4 | 2

1.37 ГБ

В этой теме нет новых непрочитанных сообщений. Добро пожаловать в рай / Vice (Брайан А Миллер) [Фантастика, боевик, триллер, приключения, 2015] HDRip, Dub [iTunes]

Dracon

156 | 6

1.42 ГБ

В этой теме нет новых непрочитанных сообщений. И снова добро пожаловать / Welcome Back [боевик, драма, комедия, криминал, 2015] WEB-DLRip, Dvo

salma3

31 | 8

2.05 ГБ

В этой теме нет новых непрочитанных сообщений. Добро пожаловать в Лос-Анджелес / Welcome to L.A. [драма, мелодрама, музыка, комедия, 1976] BDRip 720p, Dvo+Sub [НТВ+]

salma3

28 | 6

5.65 ГБ


Начать новую тему Ответить на тему  [ 1 сообщение ] 




Для Мосгорсуда, Роскомнадзора и рекламодателей:: mosgorsud-torrent[собачка]yandex.ru