Торрент файл
скачать торрент магнет ссылка Добавлен: 19 апр 2011, 17:04
Размер: 2.05 ГБ
Сидеров: 6
Личеров: 6
Автор

СообщениеДобавлено: 19 апр 2011, 17:04 

Не в сети
Супермодератор
Аватара пользователя
Дата регистрации:
22 май 2010, 11:03
Возраст: 32
Спасибо: 7690 / 13
Сообщения: 49871
Делай как надо / Do the Right Thing



Перевод: Профессиональный (двухголосый)
Субтитры: отсутствуют
Формат: BDRip, AVI, XviD, AC3
Страна: США
Режиссер: Спайк Ли
Жанр: драма, комедия
Продолжительность: 01:59:53
Год выпуска: 1989

В ролях: Руби Ди, Дэнни Айелло, Оззи Дэвис, Ричард Эдсон, Джон Туртурро, Спайк Ли, Сэмюэль Л. Джексон, Джанкарло Эспозито, Билл Нанн, Джон Сэвадж, Френки Фейсон, Робин Харрис, Мартин Лоуренс

Описание: В Нью-Йорке стоит невыносимая жара. Плавится асфальт, автомобили раскалились до температуры доменных печей, а изможденные люди, обливаясь потом, мечтают провести остаток дня под струями холодного душа… Одновременно с тем, как столбик термометра безжалостно ползет вверх, кровь жителей Бруклина постепенно начинает вскипать.
Обычно хорошо спрятанные нетерпимость, агрессия и жестокость неудержимо просятся наружу, и «поступать правильно» уже никак не получается. А посему милая, старая, уютная итальянская пиццерия «У Сэла» превращается к исходу дня в настоящее поле боя.


Рейтинг на КиноПоиске: 7.560
Рейтинг на IMDB: 7.9/10
Рейтинг на MPAA: R

Видео: 720х384 (16:9), 23.976 fps, XviD MPEG-4 ~1725 kbps avg, 0.260 bit/pixel
Аудио #1: русский 48 kHz, AC3, 2 ch, ~320 kbps avg [Профессиональный (двухголосый)]
Аудио #2: русский 48 kHz, AC3, 2 ch, ~384 kbps avg [Авторский одноголосый (Сергей Визгунов)]

Слоган: «It's the hottest day of the summer. You can do nothing, you can do something, or you can...» / "Это самый жаркий день лета. Вы можете ничего не делать, вы можете сделать что-то, или вы можете..."

Награды | Из отзывов…


Общее
Полное имя: T:\Video\Delaj_kak_nado.1989.XviD.BDRip.avi
Формат: AVI
Формат/Информация: Audio Video Interleave
Профиль формата: OpenDML
Размер файла: 2,05 Гбайт
Продолжительность: 1 ч. 59 м.
Общий поток: 2447 Кбит/сек
Название фильма: Делай как надо! / Do the Right Thing (1989) BDRip
Режиссёр: Rulya74 [1080p]
Программа кодирования: VirtualDubModRus 1.5.10.2 (build 2542/release)
Библиотека кодирования: VirtualDubMod build 2542/release
Правообладатель: www.PowerTracker.org

Видео
Идентификатор: 0
Формат: MPEG-4 Visual
Профиль формата: Advanced Simple@L5
Параметр BVOP формата: 2
Параметр QPel формата: Нет
Параметр GMC формата: Без точки перехода
Параметр матрицы формата: Default (H.263)
Режим смешивания: Сжатый битовый поток
Идентификатор кодека: XVID
Идентификатор кодека/Подсказка: XviD
Продолжительность: 1 ч. 59 м.
Битрейт: 1725 Кбит/сек
Ширина: 720 пикс.
Высота: 384 пикс.
Соотношение сторон: 16:9
Частота кадров: 23,976 кадр/сек
Цветовое пространство: YUV
Подвыборка цветности: 4:2:0
Битовая глубина: 8 бит
Тип развёртки: Прогрессивная
Метод сжатия: С потерями
Бит/(Пиксели*Кадры): 0.260
Размер потока: 1,44 Гбайт (70%)
Библиотека кодирования: XviD 1.2.1 (UTC 2008-12-04)

Аудио #1
Идентификатор: 1
Формат: AC-3
Формат/Информация: Audio Coding 3
Расширение режима: CM (complete main)
Идентификатор кодека: 2000
Продолжительность: 1 ч. 59 м.
Вид битрейта: Постоянный
Битрейт: 320 Кбит/сек
Канал(ы): 2 канала(ов)
Расположение каналов: Front: L R
Частота: 48,0 КГц
Битовая глубина: 16 бит
Метод сжатия: С потерями
Размер потока: 274 Мбайт (13%)
Выравнивание: Разделение по промежуткам
Продолжительность промежутка: 42мс. (1,00 видеокадр)
Время предзагрузки промежутка: 500 ms

Аудио #2
Идентификатор: 2
Формат: AC-3
Формат/Информация: Audio Coding 3
Расширение режима: CM (complete main)
Идентификатор кодека: 2000
Продолжительность: 1 ч. 59 м.
Вид битрейта: Постоянный
Битрейт: 384 Кбит/сек
Канал(ы): 2 канала(ов)
Расположение каналов: Front: L R
Частота: 48,0 КГц
Битовая глубина: 16 бит
Метод сжатия: С потерями
Размер потока: 329 Мбайт (16%)
Выравнивание: Разделение по промежуткам
Продолжительность промежутка: 42мс. (1,00 видеокадр)
Время предзагрузки промежутка: 500 ms










реклама партнёра


Вернуться к началу
 Профиль Отправить личное сообщение  
 
   Похожие торренты   Автор   Торрент   Размер 
В этой теме нет новых непрочитанных сообщений. Делай как надо / Do the Right Thing [драма, комедия, 1989] BDRip 1080p, Dvo

salma3

8 | 2

15.08 ГБ

В этой теме нет новых непрочитанных сообщений. Делай как надо / Do the Right Thing [драма, комедия, 1989] BDRip 720p, Dvo

salma3

17 | 3

8.09 ГБ

В этой теме нет новых непрочитанных сообщений. Делай как надо! / Do the Right Thing [Комедия, драма, криминал, 1989] HDRip, Dvo

salma3

76 | 13

1.46 ГБ

В этой теме нет новых непрочитанных сообщений. Возвращение болотной твари / The Return of Swamp Thing [ужасы, фантастика, боевик, 1989] BDRip-AVC, Avo

salma3

32 | 11

745.74 МБ

В этой теме нет новых непрочитанных сообщений. Абсолютно точно / The Sure Thing [драма, мелодрама, комедия, 1985] BDRip 1080p, Dvo

salma3

23 | 2

4.37 ГБ

В этой теме нет новых непрочитанных сообщений. Чирак / Chi-Raq (Спайк Ли) [Драма, 2015] BDRip 720p, dvo

Dracon

31 | 5

5.79 ГБ

В этой теме нет новых непрочитанных сообщений. Возвращение болотной твари / The Return of Swamp Thing [ужасы, фантастика, боевик, 1989] BDRemux 1080р, Avo+Sub

salma3

8 | 6

13.62 ГБ


Начать новую тему Ответить на тему  [ 1 сообщение ] 




Для Мосгорсуда, Роскомнадзора и рекламодателей:: mosgorsud-torrent[собачка]yandex.ru