Торрент файл
скачать торрент магнет ссылка Добавлен: 19 апр 2011, 17:03
Размер: 1.36 ГБ
Сидеров: 9
Личеров: 5
Автор

СообщениеДобавлено: 19 апр 2011, 17:03 

Не в сети
Супермодератор
Аватара пользователя
Дата регистрации:
22 май 2010, 11:03
Возраст: 31
Спасибо: 7524 / 13
Сообщения: 49940
Двойная жизнь Вероники / La double vie de Veronique



Перевод: Профессиональный (многоголосый, закадровый)
Субтитры: отсутствуют
Формат: DVDRip, AVI, XviD, AC3
Страна: Франция, Польша, Норвегия
Режиссер: Кшиштоф Кесьлевский
Жанр: фэнтези, драма, мелодрама, музыка
Продолжительность: 01:33:23
Год выпуска: 1991

В ролях: Ирэн Жакоб, Филип Вольтер, Сандрин Дюма, Клод Дюнетон, Владислав Ковальски, Ежи Гудейко

Описание: В мире есть две очень похожие девушки с одинаковым именем. В Польше живет Вероника, у которой обнаруживается чудесный голос, и она начинает выступать на сцене. Во Франции живет другая Вероника, которая тоже мечтает петь, но ей не удается осуществить свое желание, и она с головой окунается в радости любви… Как будто что-то незримое связывает их: когда закончится жизненный путь одной, другая словно подхватит и продолжит ее жизнь…

Рейтинг на КиноПоиске: 7.869
Рейтинг на IMDB: 7.8/10
Рейтинг на MPAA: R

Видео: 720х432 (1.667), 25 fps, XviD MPEG-4 ~1657 kbps avg, 0.213 bit/pixel
Аудио #1: русский 48 kHz, AC3, 2 ch, ~192 kbps avg [Профессиональный (многоголосый закадровый)]
Аудио #2: французский+польский 48 kHz, AC3, 2 ch, ~192 kbps avg [Оригинал]

Слоган: «Each of us is matched somewhere in the world, by our exact double - someone who shares our thoughts and dreams» / "Каждый из нас соответствует кому-то в мире; наша точная копия - тот, кто разделяет наши мысли и мечты"

Награды | Из отзывов…

Релиз:


Общее
Уникальный идентификатор: 233161466254757123069078771398307654554 (0xAF6943D5517416A98439E907386AAB9A)
Полное имя: T:\Video\Dvojnaja_gizn_Veroniki.1991.XviD.DVDRip.avi
Формат: Matroska
Размер файла: 1,36 Гбайт
Продолжительность: 1 ч. 33 м.
Общий поток: 2083 Кбит/сек
Дата кодирования: UTC 2011-02-15 18:02:14
Программа кодирования: mkvmerge v3.1.0 ('Happy up here') built on Jan 19 2010 12:09:24
Библиотека кодирования: libebml v0.7.9 + libmatroska v0.8.1

Видео
Идентификатор: 1
Формат: MPEG-4 Visual
Профиль формата: Advanced Simple@L5
Параметр BVOP формата: Да
Параметр QPel формата: Нет
Параметр GMC формата: Без точки перехода
Параметр матрицы формата: Default (MPEG)
Идентификатор кодека: XVID
Идентификатор кодека/Подсказка: XviD
Продолжительность: 1 ч. 33 м.
Битрейт: 1657 Кбит/сек
Ширина: 720 пикс.
Высота: 432 пикс.
Соотношение сторон: 1,667
Частота кадров: 25,000 кадр/сек
Цветовое пространство: YUV
Подвыборка цветности: 4:2:0
Битовая глубина: 8 бит
Тип развёртки: Прогрессивная
Метод сжатия: С потерями
Бит/(Пиксели*Кадры): 0.213
Размер потока: 1,08 Гбайт (80%)
Заголовок: 1991.XviD.DVDRip
Библиотека кодирования: XviD 1.2.1 (UTC 2008-12-04)

Аудио #1
Идентификатор: 2
Формат: AC-3
Формат/Информация: Audio Coding 3
Расширение режима: CM (complete main)
Идентификатор кодека: A_AC3
Продолжительность: 1 ч. 33 м.
Вид битрейта: Постоянный
Битрейт: 192 Кбит/сек
Канал(ы): 2 канала(ов)
Расположение каналов: Front: L R
Частота: 48,0 КГц
Битовая глубина: 16 бит
Метод сжатия: С потерями
Размер потока: 128 Мбайт (9%)
Заголовок: MVO
Язык: Russian

Аудио #2
Идентификатор: 3
Формат: AC-3
Формат/Информация: Audio Coding 3
Расширение режима: CM (complete main)
Идентификатор кодека: A_AC3
Продолжительность: 1 ч. 33 м.
Вид битрейта: Постоянный
Битрейт: 192 Кбит/сек
Канал(ы): 2 канала(ов)
Расположение каналов: Front: L R
Частота: 48,0 КГц
Битовая глубина: 16 бит
Метод сжатия: С потерями
Размер потока: 128 Мбайт (9%)
Заголовок: польский+французский










реклама партнёра


Вернуться к началу
 Профиль Отправить личное сообщение  
 
   Похожие торренты   Автор   Торрент   Размер 
В этой теме нет новых непрочитанных сообщений. Двойная жизнь Вероники / La double vie de Véronique / The Double Life of Veronique [фэнтези, драма, мелодрама, музыка, 1991] BDRemux 1080p, Mvo+Sub

salma3

6 | 10

20.54 ГБ

В этой теме нет новых непрочитанных сообщений. Двойная забава / Double Dhamaal [Драма, комедия, криминал, 2011] DVDRip, Dub

salma3

8 | 6

2.05 ГБ

В этой теме нет новых непрочитанных сообщений. Двойная жизнь [01-10 из 10] [Мелодрама, 2014] WEB-DLRip

Dracon

239 | 46

5.87 ГБ

В этой теме нет новых непрочитанных сообщений. Двойная жизнь [01-07 из 10] [Мелодрама, 2014] SATRip

Dracon

0 | 2

3.99 ГБ

В этой теме нет новых непрочитанных сообщений. Повторно не судят / Двойная опасность / Double Jeopardy [Триллер, 1992] DVDRip, Avo

salma3

57 | 10

1.46 ГБ

В этой теме нет новых непрочитанных сообщений. Двойная жизнь / Second Skin [Детектив, триллер, 2000] DVDRip, Mvo

salma3

4 | 2

1.46 ГБ

В этой теме нет новых непрочитанных сообщений. Никита-двойная жизнь / Два убийцы / Shattered Image [Детективный триллер, 1998] DVDRip, Avo

salma3

5 | 1

1.37 ГБ


Начать новую тему Ответить на тему  [ 1 сообщение ] 




Для Мосгорсуда, Роскомнадзора и рекламодателей:: mosgorsud-torrent[собачка]yandex.ru