Торрент файл
скачать торрент магнет ссылка Добавлен: 19 апр 2011, 17:01
Размер: 2.18 ГБ
Сидеров: 15
Личеров: 5
Автор

СообщениеДобавлено: 19 апр 2011, 17:01 

Не в сети
Супермодератор
Аватара пользователя
Дата регистрации:
22 май 2010, 11:03
Возраст: 31
Спасибо: 7509 / 13
Сообщения: 49940
Много шума из ничего / Much Ado About Nothing



Перевод: Профессиональный (многоголосый, закадровый)
Субтитры: английские
Формат: DVDRip-AVC, MKV, H.264, AC3
Страна: США, Великобритания
Режиссер: Кеннет Брэна
Жанр: мелодрама, комедия, военный
Продолжительность: 01:50:41
Год выпуска: 1993

В ролях: Кеннет Брэна, Эмма Томпсон, Ричард Брирс, Киану Ривз, Кейт Бекинсейл, Роберт Шон Леонард, Дензел Вашингтон, Майкл Китон, Имелда Стонтон, Джимми Юилл

Описание: Молодая пара — Геро и Клаудио — должна пожениться через неделю. Время идет, и они заключают пари с доном Педро, что сведут убежденного холостяка Бенедикта с язвительной спорщицей Беатриче, его давней знакомой. Тем временем злодей дон Джон хочет расстроить свадьбу Клаудио, обвинив Геро в неверности. И, казалось бы, до истины уже не докопаться, но, к счастью, все это лишь только шум… шум из ничего.

Рейтинг на КиноПоиске: 7.401
Рейтинг на IMDB: 7.4/10
Рейтинг на MPAA: PG-13

Видео: 720х480 (16:9), 23.976 fps, MPEG-4 AVC, ,~2052 kbps avg, 0.248 bit/pixel
Аудио #1: русский 48 kHz, AC3, 2 ch, ~192 kbps avg [Профессиональный (многоголосый закадровый) (ТРК Петербург 5 канал)]
Аудио #2: русский 48 kHz, AC3, 2 ch, ~192 kbps avg [Авторский одноголосый (Юрий Сербин)]
Аудио #3: русский 48 kHz, AC3, 2 ch, ~192 kbps avg [Авторский одноголосый (Сергей Визгунов)]
Аудио #4: английский 48 kHz, AC3, 2 ch, ~192 kbps avg [Оригинал]

Награды | Из отзывов…


Общее
Уникальный идентификатор: 240474245751033721094730777402514247352 (0xB4E9A7B2F7CF62D3A4C9BC6E0F168EB8)
Полное имя: T:\Video\Mhogo_shuma_iz_nichego.1993.x264.DVDRip-AVC.mkv
Формат: Matroska
Размер файла: 2,18 Гбайт
Продолжительность: 1 ч. 50 м.
Общий поток: 2822 Кбит/сек
Название фильма: -Джон Коннор-
Дата кодирования: UTC 2011-02-07 15:13:56
Программа кодирования: mkvmerge v3.1.0 ('Happy up here') built on Jan 19 2010 12:09:24
Библиотека кодирования: libebml v0.7.9 + libmatroska v0.8.1

Видео
Идентификатор: 1
Формат: AVC
Формат/Информация: Advanced Video Codec
Профиль формата:
Параметр CABAC формата: Да
Параметр ReFrames формата: 9 кадры
Идентификатор кодека: V_MPEG4/ISO/AVC
Продолжительность: 1 ч. 50 м.
Битрейт: 2052 Кбит/сек
Ширина: 720 пикс.
Высота: 480 пикс.
Соотношение сторон: 16:9
Соотношение сторон в оригинале: 16:9
Частота кадров: 23,976 кадр/сек
Стандарт вещания: NTSC
Цветовое пространство: YUV
Подвыборка цветности: 4:2:0
Битовая глубина: 8 бит
Тип развёртки: Прогрессивная
Бит/(Пиксели*Кадры): 0.248
Размер потока: 1,54 Гбайт (71%)
Заголовок: 1993.x264.DVDRip-AVC
Библиотека кодирования: x264 core 92 r1510 33d382a
Настройки программы: cabac=1 / ref=9 / deblock=1:-2:-2 / analyse=0x3:0x133 / me=umh / subme=9 / psy=1 / psy_rd=1.00:0.10 / mixed_ref=1 /
me_range=32 / chroma_me=1 / trellis=2 / 8x8dct=1 / cqm=0 / deadzone=21,11 / fast_pskip=0 / chroma_qp_offset=-3 / threads=1 / sliced_threads=0 / nr=0 /
decimate=1 / interlaced=0 / constrained_intra=0 / bframes=6 / b_pyramid=2 / b_adapt=2 / b_bias=0 / direct=3 / wpredb=1 / wpredp=2 / keyint=250 / keyint_min=25 / scenecut=40 / intra_refresh=0 / rc_lookahead=50 / rc=2pass / mbtree=1 / bitrate=2052 / ratetol=1.0 / qcomp=0.60 / qpmin=10 / qpmax=51 / qpstep=4 / cplxblur=20.0 / qblur=0.5 / ip_ratio=1.40 / aq=1:1.00
Язык: English

Аудио #1
Идентификатор: 2
Формат: AC-3
Формат/Информация: Audio Coding 3
Расширение режима: CM (complete main)
Идентификатор кодека: A_AC3
Продолжительность: 1 ч. 50 м.
Вид битрейта: Постоянный
Битрейт: 192 Кбит/сек
Канал(ы): 2 канала(ов)
Расположение каналов: Front: L R
Частота: 48,0 КГц
Битовая глубина: 16 бит
Метод сжатия: С потерями
Размер потока: 152 Мбайт (7%)
Заголовок: MVO (ТРК Петербург 5 канал)
Язык: Russian

Аудио #2
Идентификатор: 3
Формат: AC-3
Формат/Информация: Audio Coding 3
Расширение режима: CM (complete main)
Идентификатор кодека: A_AC3
Продолжительность: 1 ч. 50 м.
Вид битрейта: Постоянный
Битрейт: 192 Кбит/сек
Канал(ы): 2 канала(ов)
Расположение каналов: Front: L R
Частота: 48,0 КГц
Битовая глубина: 16 бит
Метод сжатия: С потерями
Размер потока: 152 Мбайт (7%)
Заголовок: AVO (Юрий Сербин)
Язык: Russian

Аудио #3
Идентификатор: 4
Формат: AC-3
Формат/Информация: Audio Coding 3
Расширение режима: CM (complete main)
Идентификатор кодека: A_AC3
Продолжительность: 1 ч. 50 м.
Вид битрейта: Постоянный
Битрейт: 192 Кбит/сек
Канал(ы): 2 канала(ов)
Расположение каналов: Front: L R
Частота: 48,0 КГц
Битовая глубина: 16 бит
Метод сжатия: С потерями
Размер потока: 152 Мбайт (7%)
Заголовок: AVO (Сергей Визгунов)
Язык: Russian

Аудио #4
Идентификатор: 5
Формат: AC-3
Формат/Информация: Audio Coding 3
Профиль формата: Dolby Digital
Расширение режима: CM (complete main)
Идентификатор кодека: A_AC3
Продолжительность: 1 ч. 50 м.
Вид битрейта: Постоянный
Битрейт: 192 Кбит/сек
Канал(ы): 2 канала(ов)
Расположение каналов: Front: L R
Частота: 48,0 КГц
Битовая глубина: 16 бит
Метод сжатия: С потерями
Размер потока: 152 Мбайт (7%)
Заголовок: Оригинал
Язык: English

Текст
Идентификатор: 6
Формат: UTF-8
Идентификатор кодека: S_TEXT/UTF8
Идентификатор кодека/Информация: UTF-8 Plain Text
Заголовок: английский
Язык: English










реклама партнёра


Вернуться к началу
 Профиль Отправить личное сообщение  
 
   Похожие торренты   Автор   Торрент   Размер 
В этой теме нет новых непрочитанных сообщений. Много шума из ничего / Much Ado About Nothing [драма, мелодрама, комедия, 2012] HDRip, Avo

salma3

23 | 3

746.71 МБ

В этой теме нет новых непрочитанных сообщений. Карта человеческого сердца / Map of the Human Heart [Драма, приключения, мелодрама, военный, 1993] BDRip 1080p, Dvo+Sub

salma3

12 | 10

13.5 ГБ

В этой теме нет новых непрочитанных сообщений. Праздник / Les marmottes [драма, мелодрама, комедия, 1993] DVDRip, Dvo

salma3

2 | 3

1.46 ГБ

В этой теме нет новых непрочитанных сообщений. Уж кто бы говорил - 3 / Look Who's Talking Now [мелодрама, комедия, семейный, 1993] DVDRip, Mvo

salma3

10 | 1

1.37 ГБ

В этой теме нет новых непрочитанных сообщений. Шесть степеней отчуждения / Six Degrees of Separation [Комедия, Мелодрама, 1993] DVDRip-AVC, Avo+Dvo

salma3

33 | 7

1.95 ГБ

В этой теме нет новых непрочитанных сообщений. В стране / In Country [Драма, мелодрама, комедия, военный, 1989] DVDRip, Dvo

salma3

14 | 4

1.45 ГБ

В этой теме нет новых непрочитанных сообщений. Мадам Сан-Жен / Madame Sans-Gene [драма, мелодрама, комедия, военный, 1961] DVDRip, Mvo

salma3

32 | 3

1.37 ГБ


Начать новую тему Ответить на тему  [ 1 сообщение ] 




Для Мосгорсуда, Роскомнадзора и рекламодателей:: mosgorsud-torrent[собачка]yandex.ru