Торрент файл
скачать торрент магнет ссылка Добавлен: 19 апр 2011, 17:01
Размер: 2.19 ГБ
Сидеров: 0
Личеров: 5
Автор

СообщениеДобавлено: 19 апр 2011, 17:01 

Не в сети
Супермодератор
Аватара пользователя
Дата регистрации:
22 май 2010, 11:03
Возраст: 32
Спасибо: 7690 / 13
Сообщения: 49871
[b]Чистка до блеска / Sunshine Cleaning[/b]



Перевод: Любительский (одноголосый)
Субтитры: русские, английские
Формат: HDRip, AVI, XviD, AC3

Страна: США

Режиссер: Кристин Джэффс
Жанр: Драма, комедия.
Продолжительность: 01:31:17
Год выпуска: 2008

В ролях: Эми Адамс, Эмили Блант, Алан Аркин, Джейсон Спивак, Стив Зан, Мэри Линн Райскаб, Клифтон Коллинз мл., Эрик Кристиан Олсен, Пол Дули, Кевин Чэпмен.

Описание: «Чистка до блеска» — это название фирмы по уборке особо грязных мест преступлений, которую открывают две разнохарактерных сестры Роуз и Нора Лорковски. И всё ради того, чтобы отправить сына одной из них в частную школу.

Рейтинг на IMDB:7.0 / 10
Рейтинг на КиноПоиск.RU:6.64
Рейтинг на MPAA:R

Видео: 1280x536 (2.35:1), 23.976 fps, AVC MPEG-4 , ~2471 kbps avg, 0.150 bit/pixel.
Аудио #1: русский48 kHz, AC3 Dolby Digital, 3/2 (L,C,R,l,r) + LFE ch, ~448 kbps avg [Любительский (одноголосый)];
Аудио #2: английский48 kHz, AC3 Dolby Digital, 3/2 (L,C,R,l,r) + LFE ch, ~448 kbps avg [оригинал].











Video
ID : 1
Format : AVC
Format/Info : Advanced Video Codec
Format profile :
Format settings, CABAC : Yes
Format settings, ReFrames : 11 frames
Codec ID : V_MPEG4/ISO/AVC
Duration : 1h 31mn
Bit rate : 2 471 Kbps
Width : 1 280 pixels
Height : 536 pixels
Display aspect ratio : 2.35:1
Frame rate : 23.976 fps
Color space : YUV
Chroma subsampling : 4:2:0
Bit depth : 8 bits
Scan type : Progressive
Bits/(Pixel*Frame) : 0.150
Stream size : 1.58 GiB (72%)
Writing library : x264 core 112 r1834 a51816a
Encoding settings : cabac=1 / ref=11 / deblock=1:-3:-2 / analyse=0x3:0x133 / me=umh / subme=10 / psy=1 / psy_rd=1.00:0.07 / mixed_ref=1 / me_range=32 / chroma_me=1 / trellis=2 / 8x8dct=1 / cqm=0 / deadzone=21,11 / fast_pskip=1 / chroma_qp_offset=-3 / threads=6 / sliced_threads=0 / nr=0 / decimate=1 / interlaced=0 / constrained_intra=0 / bframes=10 / b_pyramid=2 / b_adapt=2 / b_bias=0 / direct=3 / weightb=1 / open_gop=0 / weightp=2 / keyint=250 / keyint_min=23 / scenecut=40 / intra_refresh=0 / rc_lookahead=120 / rc=crf / mbtree=1 / crf=18.9 / qcomp=0.70 / qpmin=0 / qpmax=51 / qpstep=4 / ip_ratio=1.40 / aq=1:0.85
Language : English

Audio #1
ID : 2
Format : AC-3
Format/Info : Audio Coding 3
Mode extension : CM (complete main)
Codec ID : A_AC3
Duration : 1h 31mn
Bit rate mode : Constant
Bit rate : 448 Kbps
Channel(s) : 6 channels
Channel positions : Front: L C R, Side: L R, LFE
Sampling rate : 48.0 KHz
Bit depth : 16 bits
Stream size : 293 MiB (13%)
Title : VO
Language : Russian

Audio #2
ID : 3
Format : AC-3
Format/Info : Audio Coding 3
Mode extension : CM (complete main)
Codec ID : A_AC3
Duration : 1h 31mn
Bit rate mode : Constant
Bit rate : 448 Kbps
Channel(s) : 6 channels
Channel positions : Front: L C R, Side: L R, LFE
Sampling rate : 48.0 KHz
Bit depth : 16 bits
Stream size : 293 MiB (13%)
Title : Original
Language : English

Text #1
ID : 4
Format : UTF-8
Codec ID : S_TEXT/UTF8
Codec ID/Info : UTF-8 Plain Text
Language : Russian

Text #2
ID : 5
Format : UTF-8
Codec ID : S_TEXT/UTF8
Codec ID/Info : UTF-8 Plain Text
Language : English

Menu
00:00:00.000 : en:00:00:00.000
00:03:53.525 : en:00:03:53.525
00:12:03.473 : en:00:12:03.473
00:16:47.632 : en:00:16:47.632
00:23:19.523 : en:00:23:19.523
00:30:46.136 : en:00:30:46.136
00:39:50.847 : en:00:39:50.847
00:48:01.462 : en:00:48:01.462
00:57:51.551 : en:00:57:51.551
01:07:04.979 : en:01:07:04.979
01:15:28.107 : en:01:15:28.107
01:27:04.052 : en:01:27:04.052




реклама партнёра


Вернуться к началу
 Профиль Отправить личное сообщение  
 
   Похожие торренты   Автор   Торрент   Размер 
В этой теме нет новых непрочитанных сообщений. Чистка до блеска / Sunshine Cleaning [Драма, комедия, 2008] BDRip 1080p, Avo+Sub

salma3

76 | 26

7.39 ГБ

В этой теме нет новых непрочитанных сообщений. Кристин / Christine [драма, биография, 2016] HDRip, Mvo

salma3

156 | 68

1.37 ГБ

В этой теме нет новых непрочитанных сообщений. Полуночная чистка / A Midnight Clear [драма, военный, 1992] HDTV 1080i, Avo

salma3

46 | 27

4.58 ГБ

В этой теме нет новых непрочитанных сообщений. Полуночная чистка / Ясная полночь / A Midnight Clear [драма, военный, 1992] BDRip, Avo [НТВ+]

salma3

85 | 25

1.45 ГБ

В этой теме нет новых непрочитанных сообщений. Маленькая мисс Счастье / Little Miss Sunshine [драма, комедия, приключения, 2006] Blu-ray, Mvo+Sub

salma3

21 | 43

36.26 ГБ

В этой теме нет новых непрочитанных сообщений. Баскетс / Baskets [02x01-04 из 10] (Комедия, драма, 2017) HDTVRip 720p | Sunshine Studio

marya111

13 | 26

2.42 ГБ

В этой теме нет новых непрочитанных сообщений. Кости / Bones [12x01-05 из 12] (Драма, мелодрама, комедия, криминал, детектив, 2017) HDTVRip 720p | Sunshine Studio

marya111

57 | 343

4.19 ГБ


Начать новую тему Ответить на тему  [ 1 сообщение ] 




Для Мосгорсуда, Роскомнадзора и рекламодателей:: mosgorsud-torrent[собачка]yandex.ru