Торрент файл
скачать торрент магнет ссылка Добавлен: 19 апр 2011, 17:00
Размер: 2.19 ГБ
Сидеров: 64
Личеров: 6
Автор

СообщениеДобавлено: 19 апр 2011, 17:00 

Не в сети
Супермодератор
Аватара пользователя
Дата регистрации:
22 май 2010, 11:03
Возраст: 32
Спасибо: 7690 / 13
Сообщения: 49871
Американская история Х / American History X


Перевод: Профессиональный (многоголосый, закадровый)
Субтитры:Русские, английские
Формат: HDRip, MKV, H.264, AC3
Страна: США
Режиссер: Тони Кей
Жанр: драма, криминал
Продолжительность: 01:58:53
Год выпуска: 1998

В ролях: Эдвард Нортон, Эдвард Ферлонг, Беверли Д'Анджело, Эйвери Брукс, Дженнифер Льен, Итан Сапли, Стейси Кич, Файруза Балк, Элиот Гулд, Гай Торри

Описание: Лидер местной банды скинхэдов Дерек Виньярд прочно удерживает авторитет в своем районе. Убежденный в своей правоте, он беспощадно расправляется с теми, кто имеет не белый цвет кожи. Независимость и смелость Дерека вызывают восхищение у его младшего брата Дэнни, который уже тоже сделал свой выбор.

Но зверское убийство двух чернокожих парней, совершенное Дереком, разделяет дороги братьев: Дерек оказывается в тюрьме, где существует свой расклад сил, а Дэнни на свободе успешно продолжает дело брата. До тех пор, пока их пути не пересеклись вновь…






Видео: 1024x576(16:9), 23,976 кадр/сек, MPEG-4 AVC, 2183 Кбит/с, 0.154 бит/пиксель
Аудио: 48 kHz, AC3 Dolby Digital, 3/2 (L,C,R,l,r) + LFE ch, 448.00 Кбит/с



Релиз от:

Общее
UniqueID/String : 211133794857051935404923558714274375056 (0x9ED6E3C889F5810CBCAD931E64BA6590)
Полное имя : I:Amerikanskaya.istoriya.Iks.1998.х264.BDRip(AVC)-ed_rez.mkv
Формат : Matroska
Размер файла : 2,19 Гбайт
Продолжительность : 1 ч. 58 м.
Общий поток : 2632 Кбит/сек
Дата кодирования : UTC 2011-02-09 07:51:33
Программа кодирования : mkvmerge v4.4.0 ('Die Wiederkehr') built on Oct 31 2010 21:52:48
Библиотека кодирования : libebml v1.0.0 + libmatroska v1.0.0

Видео
Идентификатор : 1
Формат : AVC
Формат/Информация : Advanced Video Codec
Профиль формата :
Параметр CABAC формата : Да
Параметр ReFrames формата : 8 кадры
Режим смешивания : Header stripping
Идентификатор кодека : V_MPEG4/ISO/AVC
Продолжительность : 1 ч. 58 м.
Битрейт : 2183 Кбит/сек
Ширина : 1024 пикс.
Высота : 576 пикс.
Соотношение сторон : 16:9
Частота кадров : 23,976 кадр/сек
Цветовое пространство : YUV
Подвыборка цветности : 4:2:0
Битовая глубина : 8 бит
Тип развёртки : Прогрессивная
Бит/(Пиксели*Кадры) : 0.154
Размер потока : 1,77 Гбайт (81%)
Библиотека кодирования : x264 core 112 r1867 22bfd31
Язык : English

Аудио
Идентификатор : 2
Формат : AC-3
Формат/Информация : Audio Coding 3
Расширение режима : CM (complete main)
Режим смешивания : Header stripping
Идентификатор кодека : A_AC3
Продолжительность : 1 ч. 58 м.
Вид битрейта : Постоянный
Битрейт : 448 Кбит/сек
Канал(ы) : 6 канала(ов)
Расположение каналов : Front: L C R, Side: L R, LFE
Частота : 48,0 КГц
Битовая глубина : 16 бит
Метод сжатия : С потерями
Размер потока : 381 Мбайт (17%)
Заголовок : MVO
Язык : Russian

Текст #1
Идентификатор : 3
Формат : UTF-8
Идентификатор кодека : S_TEXT/UTF8
Идентификатор кодека/Информация : UTF-8 Plain Text
Язык : Russian

Текст #2
Идентификатор : 4
Формат : UTF-8
Идентификатор кодека : S_TEXT/UTF8
Идентификатор кодека/Информация : UTF-8 Plain Text
Язык : English
- Музыкальная группа «Anti-Heroes» подала в суд на студию «New Line Cinema» за то, что у одного из персонажей фильма была татуировка с именем данной группы. Группа не желала никаких ассоциаций с фашистами.
- Студия попросила Эдварда Нортона перемонтировать картину, тем самым, предоставив больше экранного времени его персонажу. Узнав об этом, режиссер фильма, Тони Кэй, попытался добиться исключения его имени из титров, но нарушил одно из правил «Гильдии режиссеров Америки», гласящее: «режиссеры, которые используют псевдонимы, не должны разглашать информации о том, почему они решили убрать свое имя из титров». Однако Кэй рассказал о своих намерениях во время промоушна фильма. Тони подал в суд на «Гильдию режиссеров» и студию «New Line Cinema» за нарушение первой поправки конституции, потребовав в качестве возмещения морального ущерба $200 миллионов.
- Кэмерон (Стэйси Кич) характеризует Боба Свини (Эйвери Брукс), как Дядю Тома. Брукс сыграл Дядю Тома в «Хижине дяди Тома» (1987).
- Во время баскетбольного матча Сет одет в футболку с номером 88. Это шифр скинхэдов для «НН» или «Heil Hitler»: «Н» - восьмая буква латинского алфавита. 88 также является ссылкой на 88 принципов, сформулированных нео-нацистским лидером Дэвидом Лэйном.
- Специально для данной роли Эдвард Нортон набрал 30 фунтов (примерно 13,6 килограммов) мышечной массы.
- Слово «fuck» произносится по ходу действия фильма 205 раз.
- Забегаловка, в которой завтракают Дэнни и Дерек, перед тем как Дэнни пойдет в школу, - это та же самая забегаловка, что и в фильме «Большой Лебовски» (1998).
- Цитата, которая звучит в конце эссе Дэнни, - последние слова Авраама Линкольна во время его инаугурационной речи в 1861 году.








реклама партнёра


Вернуться к началу
 Профиль Отправить личное сообщение  
 
   Похожие торренты   Автор   Торрент   Размер 
В этой теме нет новых непрочитанных сообщений. Джеронимо: Американская легенда / Geronimo: An American Legend [драма, вестерн, история, 1993] HDRip, Mvo

salma3

79 | 16

1.63 ГБ

В этой теме нет новых непрочитанных сообщений. Американская история преступлений / American Crime Story [01х01-02 из 10] [Драма, криминал, биография, 2016] HDTV 720p [Jaskier]

Dracon

124 | 65

2.88 ГБ

В этой теме нет новых непрочитанных сообщений. Американская пастораль / American Pastoral [драма, криминал, 2016] HDRip, Dub [iTunes]

salma3

574 | 202

1.37 ГБ

В этой теме нет новых непрочитанных сообщений. Американская пастораль / American Pastoral [драма, криминал, 2016] HDRip, Dub [iTunes]

salma3

257 | 92

2.05 ГБ

В этой теме нет новых непрочитанных сообщений. Американская история преступлений / The People v. O.J. Simpson: American Crime Story [1 сезон: 1-2 серия из 10] [Драма, криминал, биография, 2016] WEB-DLRip [NewStudio]

Dracon

77 | 37

1.2 ГБ

В этой теме нет новых непрочитанных сообщений. Американская милашка / American Honey [драма, 2016] HDRip, Mvo

salma3

485 | 77

1.37 ГБ

В этой теме нет новых непрочитанных сообщений. Американская рапсодия / An American Rhapsody [Драма, 2001] HDRip-AVC, Mvo

salma3

0 | 0

2.18 ГБ


Начать новую тему Ответить на тему  [ 1 сообщение ] 




Для Мосгорсуда, Роскомнадзора и рекламодателей:: mosgorsud-torrent[собачка]yandex.ru