Торрент файл
скачать торрент магнет ссылка Добавлен: 19 апр 2011, 16:54
Размер: 1.29 ГБ
Сидеров: 11
Личеров: 3
Автор

СообщениеДобавлено: 19 апр 2011, 16:54 

Не в сети
Супермодератор
Аватара пользователя
Дата регистрации:
22 май 2010, 11:03
Возраст: 31
Спасибо: 7513 / 13
Сообщения: 49940
СчастливоСпасибоЕщеПожалуйста/ HappyThankYouMorePlease


Перевод: Любительский (одноголосый), cубтитры: отсутствуют
Формат: DvDRip, MKV, H.264, AC3
Страна: США
Режиссер: Джош Рэднор
Жанр: драма, мелодрама, комедия
Продолжительность: 01:38:00
Год выпуска: 2010
В ролях: Джош Рэднор, Малин Акерман, Микаэль Альгери, Ричард Дженкинс
Описание: Фильм объединяет три истории. Их участники — это молодые люди, живущие в Нью-Йорке, разменявшие третий десяток лет. Всем им уже есть, что вспомнить, но есть и чему еще поучиться.





Видео:720х384 (1.875:1), 25 fps, AVC (x264) , ~1500 kbps avg, 0.217 bit/pixel
Аудио:48 kHz, AC3, 6 ch, ~448 kbps avg


Уникальный идентификатор : 214727251447674510775397390971254333871 (0xA18AF6DF3DFB66809712547A9B0BE1AF)
Полное имя : D:\Happythankyoumoreplease .2010.DvDRip.mkv
Формат : Matroska
Размер файла : 1,29 Гбайт
Продолжительность : 1 ч. 34 м.
Общий поток : 1960 Кбит/сек
Название фильма : Avidemux
Дата кодирования : UTC 2011-01-30 18:21:26
Программа кодирования : mkvmerge v2.0.2 ('You're My Flame') built on Feb 21 2007 23:40:55
Библиотека кодирования : libebml v0.7.7 + libmatroska v0.8.1

Видео
Идентификатор : 1
Формат : AVC
Формат/Информация : Advanced Video Codec
Профиль формата :
Параметр CABAC формата : Да
Параметр ReFrames формата : 4 кадры
Идентификатор кодека : V_MPEG4/ISO/AVC
Продолжительность : 1 ч. 34 м.
Битрейт : 1500 Кбит/сек
Ширина : 720 пикс.
Высота : 384 пикс.
Соотношение сторон : 1,875
Режим частоты кадров : Переменный
Частота кадров : 25,000 кадр/сек
Цветовое пространство : YUV
Подвыборка цветности : 4:2:0
Битовая глубина : 8 бит
Тип развёртки : Прогрессивная
Бит/(Пиксели*Кадры) : 0.217
Размер потока : 994 Мбайт (75%)
Библиотека кодирования : x264 core 106 r1732 b20059a
Настройки программы : cabac=1 / ref=3 / deblock=1:0:0 / analyse=0x3:0x113 / me=hex / subme=7 / psy=1 / psy_rd=1.00:0.00 / mixed_ref=1 / me_range=16 / chroma_me=1 / trellis=1 / 8x8dct=1 / cqm=0 / deadzone=21,11 / fast_pskip=1 / chroma_qp_offset=-2 / threads=3 / sliced_threads=0 / nr=0 / decimate=1 / interlaced=0 / constrained_intra=0 / bframes=3 / b_pyramid=2 / b_adapt=1 / b_bias=0 / direct=1 / weightb=1 / open_gop=0 / weightp=2 / keyint=250 / keyint_min=25 / scenecut=40 / intra_refresh=0 / rc_lookahead=40 / rc=abr / mbtree=1 / bitrate=1500 / ratetol=1.0 / qcomp=0.60 / qpmin=10 / qpmax=51 / qpstep=4 / ip_ratio=1.40 / aq=1:1.00

Аудио
Идентификатор : 2
Формат : AC-3
Формат/Информация : Audio Coding 3
Расширение режима : CM (complete main)
Идентификатор кодека : A_AC3
Продолжительность : 1 ч. 34 м.
Вид битрейта : Постоянный
Битрейт : 448 Кбит/сек
Канал(ы) : 6 канала(ов)
Расположение каналов : Front: L C R, Side: L R, LFE
Частота : 48,0 КГц
Битовая глубина : 16 бит
Метод сжатия : С потерями
Задержка видео : -40 мс.
Размер потока : 303 Мбайт (23%)

Текст
Идентификатор : 3
Формат : UTF-8
Идентификатор кодека : S_TEXT/UTF8
Идентификатор кодека/Информация : UTF-8 Plain Text










реклама партнёра


Вернуться к началу
 Профиль Отправить личное сообщение  
 
   Похожие торренты   Автор   Торрент   Размер 
В этой теме нет новых непрочитанных сообщений. Заражённая 2 / Contracted: Phase II (Джош Форбс) [Ужасы, триллер, драма, 2015] HDRip, dub [Чистый звук]

Dracon

30 | 1

1.29 ГБ

В этой теме нет новых непрочитанных сообщений. Инфекция: Фаза 2 / Contracted: Phase II (Джош Форбс) [Ужасы, триллер, драма, 2015] BDRip 1080p, dub [Чистый звук]

Dracon

8 | 3

6.66 ГБ

В этой теме нет новых непрочитанных сообщений. Инфекция: Фаза 2 / Contracted: Phase II (Джош Форбс) [Ужасы, триллер, драма, 2015] BDRip 720p, dub [Чистый звук]

Dracon

48 | 4

4.47 ГБ

В этой теме нет новых непрочитанных сообщений. Попутчики / Going All the Way [драма, мелодрама, комедия, 1997] DVDRip, Mvo

salma3

15 | 2

1.46 ГБ

В этой теме нет новых непрочитанных сообщений. Больше, чем друг / The Switch [драма, мелодрама, комедия, 2010] BDRemux, Dub

salma3

12 | 3

27.31 ГБ

В этой теме нет новых непрочитанных сообщений. Романтики / The Romantics [драма, мелодрама, комедия, 2010] BDRip 1080p, Dvo+Sub

salma3

30 | 21

10.59 ГБ

В этой теме нет новых непрочитанных сообщений. Искра / Sparkle [драма, мелодрама, комедия, 2007] DVDRip, Mvo

salma3

110 | 41

698.22 МБ


Начать новую тему Ответить на тему  [ 1 сообщение ] 




Для Мосгорсуда, Роскомнадзора и рекламодателей:: mosgorsud-torrent[собачка]yandex.ru