Торрент файл
скачать торрент магнет ссылка Добавлен: 04 апр 2018, 21:09
Размер: 2.19 ГБ
Сидеров: 0
Личеров: 1
Статус: (salma3)
Автор

СообщениеДобавлено: 04 апр 2018, 21:09 

Не в сети
Супермодератор
Аватара пользователя
Дата регистрации:
15 фев 2012, 16:44
Возраст: 29
Спасибо: 7331 / 2147
Сообщения: 73810
Год выхода: 1993
Жанр: фантастика, боевик, триллер
Режиссер: Марко Брамбилла / Marco Brambilla

В ролях: Сильвестр Сталлоне, Уэсли Снайпс, Сандра Буллок, Найджел Хоторн, Бенджамин Брэтт, Боб Гантон, Гленн Шэдикс, Дэнис Лири, Гранд Л. Буш, Пэт Скиппер

О фильме:
В 2032 году в крио-тюрьме после 35-летней заморозки пробуждается один из самых опасных преступников Саймон Феникс и решает взять приступом спокойный, свободный от всякого насилия Сан-Анджелес. Неспособные справиться с жестокими повадками 1990-х годов, свойственными Фениксу, официальные власти ищут полицейского тех лет, который смог бы одержать верх над преступником 90-х. Для этого они размораживают сержанта Джона Спартана, несправедливо осужденного на срок в крио-тюрьме за его последнюю схватку с Фениксом.



Страна: США
Продолжительность: 01:55:02
Перевод: Дублированный [Лицензия]

Файл
Кодек: MPEG-4 AVC
Качество: BDRip-AVC
Видео: 1056x440, 1770 kbps, 23.967
Аудио #1: русский, дублированный [лицензия, BD CEE], AC3 5.1, 448 kbps
Аудио #2: английский, оригинал, AC3 5.1, 448 kbps
Субтитры: Русский (forced, full), английский (full)

General
Complete name : D:Demolition.Man.1993.BDRip.x264.Rus.Eng.Ripodelnia.mkv
Format : Matroska
File size : 2.19 GiB
Duration : 1h 55mn
Overall bit rate : 2 720 Kbps
Encoded date : UTC 2018-04-04 13:44:05
Writing application : mkvmerge v20.0.0 ('I Am The Sun') 64-bit
Writing library : libebml v1.3.5 + libmatroska v1.4.8

Video
ID : 1
Format : AVC
Format/Info : Advanced Video Codec
Format profile : High@L4.1
Format settings, CABAC : Yes
Format settings, ReFrames : 14 frames
Muxing mode : Container profile=Unknown@4.1
Codec ID : V_MPEG4/ISO/AVC
Duration : 1h 54mn
Bit rate : 1 770 Kbps
Nominal bit rate : 1 822 Kbps
Width : 1 056 pixels
Height : 440 pixels
Display aspect ratio : 2.400
Frame rate : 23.976 fps
Resolution : 24 bits
Colorimetry : 4:2:0
Scan type : Progressive
Bits/(Pixel*Frame) : 0.159
Stream size : 1.42 GiB (65%)
Title : Ripodelnia
Writing library : x264 core 155 r2901 7d0ff22
Encoding settings : cabac=1 / ref=14 / deblock=1:-2:-2 / analyse=0x3:0x133 / me=umh / subme=11 / psy=1 / psy_rd=1.00:0.05 / mixed_ref=1 / me_range=48 / chroma_me=1 / trellis=2 / 8x8dct=1 / cqm=0 / deadzone=21,11 / fast_pskip=0 / chroma_qp_offset=-3 / threads=4 / lookahead_threads=1 / sliced_threads=0 / nr=0 / decimate=0 / interlaced=0 / bluray_compat=0 / constrained_intra=0 / bframes=16 / b_pyramid=2 / b_adapt=2 / b_bias=0 / direct=3 / weightb=1 / open_gop=0 / weightp=2 / keyint=240 / keyint_min=23 / scenecut=40 / intra_refresh=0 / rc_lookahead=60 / rc=2pass / mbtree=0 / bitrate=1822 / ratetol=1.0 / qcomp=0.70 / qpmin=0 / qpmax=69 / qpstep=4 / cplxblur=20.0 / qblur=0.5 / vbv_maxrate=50000 / vbv_bufsize=62500 / nal_hrd=none / filler=0 / ip_ratio=1.40 / pb_ratio=1.30 / aq=2:0.80

Audio #1
ID : 2
Format : AC-3
Format/Info : Audio Coding 3
Codec ID : A_AC3
Duration : 1h 55mn
Bit rate mode : Constant
Bit rate : 448 Kbps
Channel(s) : 6 channels
Channel positions : Front: L C R, Surround: L R, LFE
Sampling rate : 48.0 KHz
Stream size : 369 MiB (16%)
Title : Russian (Dub, BD CEE)
Language : Russian

Audio #2
ID : 3
Format : AC-3
Format/Info : Audio Coding 3
Codec ID : A_AC3
Duration : 1h 55mn
Bit rate mode : Constant
Bit rate : 448 Kbps
Channel(s) : 6 channels
Channel positions : Front: L C R, Surround: L R, LFE
Sampling rate : 48.0 KHz
Stream size : 369 MiB (16%)
Title : English (Original)
Language : English

Text #1
ID : 4
Format : UTF-8
Codec ID : S_TEXT/UTF8
Codec ID/Info : UTF-8 Plain Text
Title : Russian (forced)
Language : Russian

Text #2
ID : 5
Format : UTF-8
Codec ID : S_TEXT/UTF8
Codec ID/Info : UTF-8 Plain Text
Title : Russian (full)
Language : Russian

Text #3
ID : 6
Format : UTF-8
Codec ID : S_TEXT/UTF8
Codec ID/Info : UTF-8 Plain Text
Title : English (full)
Language : English

Menu
00:00:00.000 : en:00:00:00.000
00:02:50.212 : en:00:02:50.212
00:07:10.847 : en:00:07:10.847
00:11:30.523 : en:00:11:30.523
00:16:46.214 : en:00:16:46.214
00:22:59.878 : en:00:22:59.878
00:28:39.468 : en:00:28:39.468
00:31:03.987 : en:00:31:03.987
00:32:43.879 : en:00:32:43.879
00:37:45.555 : en:00:37:45.555
00:41:26.776 : en:00:41:26.776
00:47:32.016 : en:00:47:32.016
00:51:13.320 : en:00:51:13.320
00:54:35.314 : en:00:54:35.314
00:57:18.018 : en:00:57:18.018
01:00:17.197 : en:01:00:17.197
01:03:16.543 : en:01:03:16.543
01:07:41.933 : en:01:07:41.933
01:14:57.326 : en:01:14:57.326
01:17:39.446 : en:01:17:39.446
01:19:54.331 : en:01:19:54.331
01:24:09.253 : en:01:24:09.253
01:27:03.885 : en:01:27:03.885
01:28:04.905 : en:01:28:04.905
01:30:25.962 : en:01:30:25.962
01:34:50.310 : en:01:34:50.310
01:37:10.825 : en:01:37:10.825
01:41:16.904 : en:01:41:16.904
01:45:52.179 : en:01:45:52.179
01:48:42.641 : en:01:48:42.641


Релиз от: Ripodelnia (ex HQ Underverse)


_________________
Проголосуй за трекер Открытый торрент трекер - RUS-MEDIA.ORG

Проголосуй Открытый торрент трекер - RUS-MEDIA.ORG


Вернуться к началу
 Профиль Отправить личное сообщение  
 
   Похожие торренты   Автор   Торрент   Размер 
В этой теме нет новых непрочитанных сообщений. Разрушитель / Demolition Man [Фантастика, боевик, триллер, 1993] BDRip 720p, Dub [60 fps]

salma3

6 | 3

8.66 ГБ

В этой теме нет новых непрочитанных сообщений. Разрушитель / Demolition Man [фантастика, боевик, триллер, 1993] BDRip 1080p, Dub

salma3

14 | 3

10.88 ГБ

В этой теме нет новых непрочитанных сообщений. Разрушитель / Demolition Man [фантастика, боевик, триллер, 1993] HDRip-AVC, Dub

salma3

17 | 4

747.23 МБ

В этой теме нет новых непрочитанных сообщений. Разрушитель / Demolition Man [Фантастика, боевик, триллер, 1993] BDRemux 1080p, Dub

salma3

8 | 25

24.66 ГБ

В этой теме нет новых непрочитанных сообщений. Разрушитель / The Demolisher [ужасы, боевик, триллер, 2015] BDRip 720p, Avo

salma3

13 | 0

8.71 ГБ

В этой теме нет новых непрочитанных сообщений. Разрушитель / The Demolisher [ужасы, боевик, триллер, 2015] BDRip 720p, Avo

salma3

174 | 22

4.49 ГБ

В этой теме нет новых непрочитанных сообщений. Разрушитель / The Demolisher [ужасы, боевик, триллер, 2015] HDRip, Avo

salma3

1253 | 93

1.48 ГБ


Начать новую тему Ответить на тему  [ 1 сообщение ] 




Для Мосгорсуда, Роскомнадзора и рекламодателей:: mosgorsud-torrent[собачка]yandex.ru
cron