Торрент файл
скачать торрент магнет ссылка Добавлен: 19 апр 2011, 16:44
Размер: 2.06 ГБ
Сидеров: 10
Личеров: 6
Автор

СообщениеДобавлено: 19 апр 2011, 16:44 

Не в сети
Супермодератор
Аватара пользователя
Дата регистрации:
22 май 2010, 11:03
Возраст: 32
Спасибо: 7690 / 13
Сообщения: 49871
Кэнди / Candy


Перевод: Профессиональный (двухголосый), cубтитры: отсутствуют
Формат: HDRip, AVI, XviD, AC3
Страна: Австралия
Режиссер: Нил Армфилд
Жанр: мелодрама, драма
Продолжительность: 01:52:13
Год выпуска: 2006
В ролях: Эбби Корниш Хит Леджер, Джеффри Раш, Том Бадж, Роберто Меца-Монт, Тони Мартин, Нони Хазлхерст, Холли Остин, Крэйг Морахэн, Джон Ли

Описание: Кэнди, красивая юная художница, влюбляется в Дэна, поэта от случая к случаю. Их любовь опьяняет: они стремятся к бесконечному наслаждению. Раздвинуть границы возможного им помогает героин. Когда они вместе, они не боятся будущего. Но вскоре у любовников кончаются деньги на наркотики. Кэнди идёт на панель. Дэн ей не мешает, и незаметно для себя они покидают пределы своего Рая.Зависимость от героина становится всё сильнее, и в это время Кэнди и Дэн решают скрепить себя узами брака. Свадьба пролетает в наркотическом дурмане. Родители Кэнди в ужасе. На их глазах дочь летит в пропасть, навстречу чему-то, чего они страшно боятся, но не могут понять. Проходят дни и ночи. Для Кэнди и Дэна любовь неразрывно связана с наркотиками

«Наркотически-романтическая баллада о влюбленных. Отличная режиссура, предельно бескомпромиссный сценарий, и замечательные актерские работы. Вечная память Хиту Леджеру. Номинация на «Золотой Медведь» на Берлинском кинофестивале, 2006г.

«Любовь - это высота, с которой вы никогда не захотите спуститься»





Видео:720x392, 24.000 fps,XviD MPEG-4, 1817 Kbps, 0.268 bit/pixel
Аудио: #1: Russian:48 kHz, AC3,AC-3 Dolby Digital, 3/2 (L,C,R,l,r) + LFE ch, ~448.00 kbps avg [Двухголосый закадровый]
Аудио: #2:English:48 kHz, AC3,AC-3 Dolby Digital, 3/2 (L,C,R,l,r) + LFE ch, ~448.00 kbps avg [Оригинал]

Рeлиз группы :

D:\proekt\Candy_2006_HDRip.avi
General
Complete name : D:\proekt\Candy_2006_HDRip.avi
Format : AVI
Format/Info : Audio Video Interleave
Format profile : OpenDML
File size : 2.06 GiB
Duration : 1h 47mn
Overall bit rate : 2 731 Kbps
Writing application : VirtualDubMod 1.5.10.2 (build 2540/release)
Writing library : VirtualDubMod build 2540/release
Video #0
ID : 0
Format : MPEG-4 Visual
Format profile : AdvancedSimple@L5
Format settings, BVOP : Yes
Format settings, QPel : No
Format settings, GMC : No warppoints
Format settings, Matrix : Default (MPEG)
Codec ID : XVID
Codec ID/Hint : XviD
Duration : 1h 47mn
Bit rate : 1 817 Kbps
Width : 720 pixels
Height : 392 pixels
Display aspect ratio : 16:9
Frame rate : 24.000 fps
Resolution : 24 bits
Colorimetry : 4:2:0
Scan type : Progressive
Bits/(Pixel*Frame) : 0.268
Stream size : 1.37 GiB (67%)
Writing library : XviD 1.2.1 (UTC 2008-12-04)
Audio #1
ID : 1
Format : AC-3
Format/Info : Audio Coding 3
Codec ID : 2000
Duration : 1h 47mn
Bit rate mode : Constant
Bit rate : 448 Kbps
Channel(s) : 6 channels
Channel positions : Front: L C R, Surround: L R, LFE
Sampling rate : 48.0 KHz
Stream size : 345 MiB (16%)
Alignment : Split accross interleaves
Interleave, duration : 42 ms (1.00 video frame)
Interleave, preload duration : 500 ms
Audio #2
ID : 2
Format : AC-3
Format/Info : Audio Coding 3
Codec ID : 2000
Duration : 1h 47mn
Bit rate mode : Constant
Bit rate : 448 Kbps
Channel(s) : 6 channels
Channel positions : Front: L C R, Surround: L R, LFE
Sampling rate : 48.0 KHz
Stream size : 345 MiB (16%)
Alignment : Split accross interleaves
Interleave, duration : 42 ms (1.00 video frame)










реклама партнёра


Вернуться к началу
 Профиль Отправить личное сообщение  
 
   Похожие торренты   Автор   Торрент   Размер 
В этой теме нет новых непрочитанных сообщений. Kinzie Kenner - Трудная конфетка 2 / Hard Candy 2 (2006) HDRip

salma3

8 | 0

586.53 МБ

В этой теме нет новых непрочитанных сообщений. [StreetSuckers.com / CumLouder.com] Candy & Jade - Me, my clone and Candy (26.10.2017) [Threesome, 2 Females 1 Male (FFM), Latina, Public, Big Dick, Reality, Spanish Porn]

salma3

20 | 7

583.72 МБ

В этой теме нет новых непрочитанных сообщений. Дары смерти / The Devil's Candy [ужасы, 2015] HDRip, Avo

salma3

836 | 97

736.59 МБ

В этой теме нет новых непрочитанных сообщений. Одинокие сердца / Lonely Hearts [триллер, мелодрама, драма, криминал, 2006] HDRip, Dvo

salma3

134 | 9

1.45 ГБ

В этой теме нет новых непрочитанных сообщений. Привлекательная / Приятный на вид / Eye Candy [01x01-09] (Рассел Малкэй) [2015, триллер, драма, криминал, HDTVRip]

Nickolas3435

22 | 19

2.45 ГБ

В этой теме нет новых непрочитанных сообщений. Любовь и другие катастрофы / Love and Other Disasters [мелодрама, комедия, 2006] HDRip, Mvo

salma3

113 | 13

1.45 ГБ

В этой теме нет новых непрочитанных сообщений. Приятный на вид / Eye Candy (Нэйтан Хоуп, Марта Митчелл, Рассел Малкэй) [2015, триллер, драма, криминал, детектив, HDTVRip | Alternative Production]

Nickolas3435

41 | 9

5.43 ГБ


Начать новую тему Ответить на тему  [ 1 сообщение ] 




Для Мосгорсуда, Роскомнадзора и рекламодателей:: mosgorsud-torrent[собачка]yandex.ru