Торрент файл
скачать торрент магнет ссылка Добавлен: 01 апр 2018, 21:07
Размер: 1.47 ГБ
Сидеров: 0
Личеров: 0
Статус: (salma3)
Автор

СообщениеДобавлено: 01 апр 2018, 21:07 

Не в сети
Супермодератор
Аватара пользователя
Дата регистрации:
15 фев 2012, 16:44
Возраст: 29
Спасибо: 7379 / 2147
Сообщения: 76077
Год выхода: 2013
Жанр: Комедия
Режиссер: Джек Нео

В ролях: Джошуа Тань, Тош Чжан, Дэниэл Энг, Вивек Арора, Ридван Азман, Фиш Чаар, Сара Чэнь, Тянь Вэнь Чэнь, Чарли Го, Стивен Го, Люк Ли Вэнь Лунг, Ван Лэй, Дженсон Лим, Макси Лим

О фильме:
Главный герой Кен еще больше возмужал и теперь готов покорить новые высоты. Но неожиданно на пути Кена вырастает еще одна преграда. Заматеревший парень должен ее преодолеть, чтобы стать настоящим мужчиной и порадовать своих близких людей. Решение проблем будет сопровождаться смешными ситуациями – без этого Кен и его новые друзья по службе никак не могут!



Страна: Сингапур
Продолжительность: 01:52:46
Перевод: Любительский одноголосый (den904)

Файл
Формат: AVI
Качество: BDRip
Видео: 720x400 (1.80:1), 25 fps, XviD build 50 ~1659 kbps avg, 0.23 bit/pixel
Звук: 48 kHz, AC3 Dolby Digital, 2/0 (L,R) ch, ~192 kbps

Присутствует ненормативная лексика!

General
Complete name : I:Ah.Boys.to.Men.II.2013.L1.BDRip.XviD.AC3.avi
Format : AVI
Format/Info : Audio Video Interleave
File size : 1.47 GiB
Duration : 1 h 52 min
Overall bit rate : 1 861 kb/s
Writing application : VirtualDubMod 1.5.10.3 (build 2550/release)
Writing library : VirtualDubMod build 2550/release

Video
ID : 0
Format : MPEG-4 Visual
Format profile : Advanced Simple@L5
Format settings, BVOP : 1
Format settings, QPel : No
Format settings, GMC : No warppoints
Format settings, Matrix : Default (MPEG)
Codec ID : XVID
Codec ID/Hint : XviD
Duration : 1 h 52 min
Bit rate : 1 659 kb/s
Width : 720 pixels
Height : 400 pixels
Display aspect ratio : 16:9
Frame rate : 25.000 FPS
Color space : YUV
Chroma subsampling : 4:2:0
Bit depth : 8 bits
Scan type : Progressive
Compression mode : Lossy
Bits/(Pixel*Frame) : 0.230
Stream size : 1.31 GiB (89%)
Writing library : XviD 1.2.1 (UTC 2008-12-04)

Audio
ID : 1
Format : AC-3
Format/Info : Audio Coding 3
Format settings, Endianness : Big
Codec ID : 2000
Duration : 1 h 52 min
Bit rate mode : Constant
Bit rate : 192 kb/s
Channel(s) : 2 channels
Channel positions : Front: L R
Sampling rate : 48.0 kHz
Frame rate : 31.250 FPS (1536 spf)
Bit depth : 16 bits
Compression mode : Lossy
Stream size : 155 MiB (10%)
Alignment : Split accross interleaves
Interleave, duration : 40 ms (1.00 video frame)
Interleave, preload duratio : 500 ms
Service kind : Complete Main



_________________
Проголосуй за трекер Открытый торрент трекер - RUS-MEDIA.ORG

Проголосуй Открытый торрент трекер - RUS-MEDIA.ORG


Вернуться к началу
 Профиль Отправить личное сообщение  
 
   Похожие торренты   Автор   Торрент   Размер 
В этой теме нет новых непрочитанных сообщений. Крутые мужики / Tough Guys [комедия, 1986] BDRip-AVC, Dub

salma3

18 | 10

4.57 ГБ

В этой теме нет новых непрочитанных сообщений. Крутые мужики / Tough Guys [комедия, 1986] BDRip 720p, Dub

salma3

0 | 1

7.3 ГБ

В этой теме нет новых непрочитанных сообщений. Крутые мужики / Tough Guys [комедия, 1986] BDRip 1080p, Mvo

salma3

10 | 4

16.6 ГБ

В этой теме нет новых непрочитанных сообщений. Солнце, море и парни / Where the Boys Are '84 [комедия, 1984] BDRip 1080p, Avo

salma3

33 | 50

8.51 ГБ

В этой теме нет новых непрочитанных сообщений. Плохие парни / Bad Boys [Комедия, боевик, 1995] BDRip 1080p, Dub+Mvo+Avo+Sub

salma3

61 | 12

12.94 ГБ

В этой теме нет новых непрочитанных сообщений. Плохие парни 2 / Bad Boys II [Боевик, криминал, комедия, 2003] BDRip-AVC, Dub+Mvo+Avo+Sub

salma3

34 | 5

4.54 ГБ

В этой теме нет новых непрочитанных сообщений. Плохие парни 2 / Bad Boys II [Боевик, Приключения, Комедия, 2003] BDRip 720p, Dub+Mvo+Dvo+Avo+Sub

salma3

33 | 24

8.24 ГБ


Начать новую тему Ответить на тему  [ 1 сообщение ] 




Для Мосгорсуда, Роскомнадзора и рекламодателей:: mosgorsud-torrent[собачка]yandex.ru
cron