Торрент файл
скачать торрент магнет ссылка Добавлен: 19 апр 2011, 16:22
Размер: 2.35 ГБ
Сидеров: 41
Личеров: 6
Автор

СообщениеДобавлено: 19 апр 2011, 16:22 

Не в сети
Супермодератор
Аватара пользователя
Дата регистрации:
22 май 2010, 11:03
Возраст: 32
Спасибо: 7690 / 13
Сообщения: 49871
Легенды осени / Legends Of the Fall


Перевод: Профессиональный (полное дублирование) + Профессиональный (многоголосый закадровый), cубтитры: Английские

Формат: BDRip, MKV, H.264, AC3
Страна: США, TriStar Pictures

Режиссер: Эдвард Цвик

Жанр: Драма
Продолжительность: 02:12:49
Год выпуска: 1994

В ролях: Брэд Питт, Энтони Хопкинс, Эйдан Куинн, Джулия Ормонд, Генри Томас, Карина Ломбард, Гордон Тутусис, Кристина Пиклз, Пол Десмонд, Танту Кардинал

Описание: Некоторые люди очень ясно слышат свой внутренний голос, и живут так, как он им подсказывает. Такие люди сходят с ума. Или становятся легендами". Так начинается история семьи Ладлоу - стремительный и романтический рассказ о трех братьях, их отце и молодой и неотразимой женщине, которая роковым образом изменяет жизнь каждого из них. С детства трое братьев неразлучны, однако они еще не подозревают, по какой тропе страстей и насилия поведет жизнь каждого из них. Сквозь ужасы Первой Мировой, сквозь потерянные годы, последовавшие за войной, через любовь и потери, предательство и надежду. И в центре всегда оказывался недосягаемый, непредсказуемый Тристан. "Он был той скалой, о которую они разбивались..."

Рейтинг Кинопоиск.RU: 8.057
Рейтинг IMDB: 7.1/10
Рейтинг MPAA: R

Видео: 1024x552 (2.35), 23,976 fps, AVC MPEG4 (х264) , ~ 1978 kbps avg, 0.122 bit/pixel

Аудио #1: русский 48 kHz, AC3 , 6ch, ~ 448 kbps avg Дубляж
Аудио #2: русский 48 kHz, AC3 , 6ch, ~ 384 kbps avg Профессиональный (многоголосый закадровый)


Формат: Matroska
Размер файла: 2.35 GiB
Продолжительность: 2h 12mn
Общий поток: 2 533 Kbps
Фильм: Legends Of The Fall
Дата кодирования: UTC 2011-01-14 08:31:40
Программа-кодировщик: mkvmerge v4.0.0 ('The Stars were mine') сборка от Jun6 2010 16:18:42
Библиотека кодирования: libebml v1.0.0 + libmatroska v1.0.0

Video
Идентификатор: 1
Формат: AVC
Формат/Информация: Advanced Video Codec
Профайл формата:
Параметры CABAC формата: Yes
Параметры ReFrames формата: 6 frames
Режим смешивания: Container profile=Unknown@3.1
Идентификатор кодека: V_MPEG4/ISO/AVC
Продолжительность: 2h 12mn
Битрейт: 1 651 Kbps
Номинальный битрейт: 1 700 Kbps
Ширина: 1 024 pixels
Высота: 552 pixels
Соотношение кадра: 1.855
Частота кадров: 23.976 fps
Разрешение: 24 bits
Колориметрия: 4:2:0
Тип развёртки: Progressive
Бит/(Пиксели*Кадры): 0.122
Размер потока: 1.53 GiB (65%)
Библиотека кодирования: x264 core 92 r1510 33d382a
Настройки программы: cabac=1 / ref=6 / deblock=1:-1:-1 / analyse=0x3:0x111 / me=umh / subme=7 / psy=1 / psy_rd=1.00:0.10 / mixed_ref=1 / me_range=16 / chroma_me=1 / trellis=2 / 8x8dct=1 / cqm=0 / deadzone=21,11 / fast_pskip=0 / chroma_qp_offset=-3 / threads=3 / sliced_threads=0 / nr=0 / decimate=1 / interlaced=0 / constrained_intra=0 / bframes=3 / b_pyramid=2 / b_adapt=2 / b_bias=0 / direct=3 / wpredb=1 / wpredp=2 / keyint=250 / keyint_min=25 / scenecut=40 / intra_refresh=0 / rc_lookahead=50 / rc=2pass / mbtree=1 / bitrate=1700 / ratetol=1.0 / qcomp=0.60 / qpmin=10 / qpmax=51 / qpstep=4 / cplxblur=20.0 / qblur=0.5 / vbv_maxrate=50000 / vbv_bufsize=50000 / ip_ratio=1.40 / aq=1:1.00 / nal_hrd=none

Audio #1
Идентификатор: 2
Формат: AC-3
Формат/Информация: Audio Coding 3
Идентификатор кодека: A_AC3
Продолжительность: 2h 12mn
Вид битрейта: Constant
Битрейт: 448 Kbps
Канал(ы): 6 channels
Расположение каналов: Front: L C R, Surround: L R, LFE
Частота: 48.0 KHz
Размер потока: 426 MiB (18%)
Заголовок: Дубляж
Язык: Russian

Audio #2
Идентификатор: 3
Формат: AC-3
Формат/Информация: Audio Coding 3
Идентификатор кодека: A_AC3
Продолжительность: 2h 12mn
Вид битрейта: Constant
Битрейт: 384 Kbps
Канал(ы): 6 channels
Расположение каналов: Front: L C R, Surround: L R, LFE
Частота: 48.0 KHz
Размер потока: 365 MiB (15%)
Заголовок: Многоголосный
Язык: Russian

Text
Идентификатор: 4
Формат: UTF-8
Идентификатор кодека: S_TEXT/UTF8
Идентификатор кодека/Информация: UTF-8 Plain Text















реклама партнёра


Вернуться к началу
 Профиль Отправить личное сообщение  
 
   Похожие торренты   Автор   Торрент   Размер 
В этой теме нет новых непрочитанных сообщений. Легенды осени / Legends Of The Fall (Эдвард Цвик / Edward Zwick) [1994, США, драма, мелодрама, военный, HDTVRip 720p] DUB MVO Sub rus

marya111

0 | 0

7.72 ГБ

В этой теме нет новых непрочитанных сообщений. Легенды осени / Legends of the Fall [драма, мелодрама, вестерн, военный, 1994] HDRip, Dub

salma3

79 | 11

1.45 ГБ

В этой теме нет новых непрочитанных сообщений. Жертвуя пешкой / Pawn Sacrifice (Эдвард Цвик) [драма, биография, 2014] BDRip 720p, Dub [Itunes]

Dracon

3400 | 224

7.39 ГБ

В этой теме нет новых непрочитанных сообщений. Жертвуя пешкой / Pawn Sacrifice (Эдвард Цвик) [драма, биография, 2014] HDRip, Dub [Itunes]

Dracon

1940 | 107

2.18 ГБ

В этой теме нет новых непрочитанных сообщений. Жертвуя пешкой / Pawn Sacrifice (Эдвард Цвик) [драма, биография, 2014] HDRip, Dub [Itunes]

Dracon

8359 | 355

1.45 ГБ

В этой теме нет новых непрочитанных сообщений. Джек Ричер 1-2 / Jack Reacher 1-2 ( Кристофер МакКуорри, Эдвард Цвик) [2012- 2016 ,Боевик, триллер, криминал, детектив, экранизация , BDRip 1080p] [DD5.1] [Dub Rus, Englis + Subs Rus, ENG] [ iTunes]

Враг Нароода

1 | 3

16.63 ГБ

В этой теме нет новых непрочитанных сообщений. Легенды / Legends [S02] (Дэвид Семел, Брэд Тернер, Джон Беринг) [2015, драма, криминал, WEB-DLRip | NewStudio]

Nickolas3434

190 | 89

5.3 ГБ


Начать новую тему Ответить на тему  [ 1 сообщение ] 




Для Мосгорсуда, Роскомнадзора и рекламодателей:: mosgorsud-torrent[собачка]yandex.ru