Торрент файл
скачать торрент магнет ссылка Добавлен: 19 апр 2011, 13:37
Размер: 1.61 ГБ
Сидеров: 5
Личеров: 4
Автор

СообщениеДобавлено: 19 апр 2011, 13:37 

Не в сети
Супермодератор
Аватара пользователя
Дата регистрации:
22 май 2010, 11:03
Возраст: 32
Спасибо: 7690 / 13
Сообщения: 49871
Мемуары подростка, страдающего амнезией / Memoirs of a Teenage Amnesiac



Перевод: Любительский (одноголосый)
Cубтитры: RUS (hurd,отключаемые)
Формат: DVDRip, MKV, H264, AC3
Страна: Япония, США
Режиссер: Ханс Каноса
Жанр: мелодрама, драма
Продолжительность: 02:03:49
Год выпуска: 2010

В ролях:Хорикита Маки, Матсуяма Кеничи, Тегоши Юя, Антон Ельчин, Эмма Робертс, Миса Шимизу, Ватабэ Атзуро

Описание: Наоми учится в средней школе. Однажды падая с лестницы она получает серьёзную травму головы и теряет память. Теперь Наоми надо вспомнить, кем она была до проишествия. И заново открыть себя.

Рейтинг IMDB: 7.4/10
Рейтинг Кинопоиск.RU: 7.071

Видео: 720 х 304 (2,35:1), 23,976 кадр/сек, x264 core 65, ~923 Кбит/сек, 0.176bit/pixel
Аудио: 48,0 КГц, AC-3, 2 ch, ~448 Кбит/сек


Общее
UniqueID/String : 186770975295156341691293952308988779879 (0x8C82C80A3EDDD2518C6A1F6AE03A9D67)
Полное имя : D:\Dorama\Memoirs of a Teenage Amnesiac.mkv
Формат : Matroska
Размер файла : 1,61 Гбайт
Продолжительность : 2 ч. 3 м.
Общий поток : 1856 Кбит/сек
Дата кодирования : UTC 2010-12-25 23:41:06
Программа кодирования : mkvmerge v4.3.0 ('Escape from the Island') сборка от Sep 5 2010 10:30:51
Библиотека кодирования : libebml v1.0.0 + libmatroska v1.0.0

Видео
Идентификатор : 1
Формат : AVC
Формат/Информация : Advanced Video Codec
Профиль формата :
Параметр CABAC формата : Да
Параметр ReFrames формата : 4 кадры
Режим смешивания : Header stripping
Идентификатор кодека : V_MPEG4/ISO/AVC
Продолжительность : 2 ч. 3 м.
Битрейт : 923 Кбит/сек
Ширина : 720 пикс.
Высота : 304 пикс.
Соотношение сторон : 2,35:1
Частота кадров : 23,976 кадр/сек
Цветовое пространство : YUV
Подвыборка цветности : 4:2:0
Битовая глубина : 8 бит
Тип развёртки : Прогрессивная
Бит/(Пиксели*Кадры) : 0.176
Размер потока : 817 Мбайт (50%)
Заголовок : DvdRip_Onichan
Библиотека кодирования : x264 core 98 r1649 20cbe10
Настройки программы : cabac=1 / ref=3 / deblock=1:0:0 / analyse=0x3:0x113 / me=hex / subme=7 / psy=1 / psy_rd=1.00:0.00 / mixed_ref=1 / me_range=16 / chroma_me=1 / trellis=1 / 8x8dct=1 / cqm=0 / deadzone=21,11 / fast_pskip=1 / chroma_qp_offset=-2 / threads=3 / sliced_threads=0 / nr=0 / decimate=1 / interlaced=0 / constrained_intra=0 / bframes=3 / b_pyramid=2 / b_adapt=1 / b_bias=0 / direct=1 / weightb=1 / weightp=2 / keyint=250 / keyint_min=25 / scenecut=40 / intra_refresh=0 / rc_lookahead=40 / rc=crf / mbtree=1 / crf=16.0 / qcomp=0.60 / qpmin=10 / qpmax=51 / qpstep=4 / ip_ratio=1.40 / aq=1:1.00

Аудио #1
Идентификатор : 2
Формат : AC-3
Формат/Информация : Audio Coding 3
Расширение режима : CM (complete main)
Режим смешивания : Header stripping
Идентификатор кодека : A_AC3
Продолжительность : 2 ч. 3 м.
Вид битрейта : Постоянный
Битрейт : 448 Кбит/сек
Канал(ы) : 6 канала(ов)
Расположение каналов : Front: L C R, Side: L R, LFE
Частота : 48,0 КГц
Битовая глубина : 16 бит
Метод сжатия : С потерями
Размер потока : 397 Мбайт (24%)
Заголовок : OniChan_Rus_5_1
Язык : Russian

Аудио #2
Идентификатор : 3
Формат : AC-3
Формат/Информация : Audio Coding 3
Расширение режима : CM (complete main)
Режим смешивания : Header stripping
Идентификатор кодека : A_AC3
Продолжительность : 2 ч. 3 м.
Вид битрейта : Постоянный
Битрейт : 448 Кбит/сек
Канал(ы) : 6 канала(ов)
Расположение каналов : Front: L C R, Side: L R, LFE
Частота : 48,0 КГц
Битовая глубина : 16 бит
Метод сжатия : С потерями
Размер потока : 397 Мбайт (24%)
Заголовок : original_5_1
Язык : Japanese

Текст
Идентификатор : 4
Формат : ASS
Идентификатор кодека : S_TEXT/ASS
Идентификатор кодека/Информация : Advanced Sub Station Alpha
Метод сжатия : Без потерь
Заголовок : subs_rus
Язык : Russian









реклама партнёра


Вернуться к началу
 Профиль Отправить личное сообщение  
 
   Похожие торренты   Автор   Торрент   Размер 
В этой теме нет новых непрочитанных сообщений. Страдающий амнезией / Amnesiac (Майкл Полиш) [Ужасы, триллер, драма, детектив, 2015] BDRip 720p, dvo+avo

Dracon

383 | 41

4.71 ГБ

В этой теме нет новых непрочитанных сообщений. Дневник девочки-подростка / The Diary of a Teenage Girl [Драма, мелодрама, 2015] HDRip, Mvo [iTunes]

Dracon

226 | 12

2.04 ГБ

В этой теме нет новых непрочитанных сообщений. Дневник девочки-подростка / The Diary of a Teenage Girl [Драма, мелодрама, 2015] HDRip, Mvo [iTunes]

Dracon

687 | 46

1.46 ГБ

В этой теме нет новых непрочитанных сообщений. Дневник девочки-подростка / The Diary of a Teenage Girl [Драма, мелодрама, 2015] BDRip 1080p, Mvo [iTunes]

Dracon

39 | 4

7.92 ГБ

В этой теме нет новых непрочитанных сообщений. Дневник девочки-подростка / The Diary of a Teenage Girl [Драма, мелодрама, 2015] BDRip 720p, Mvo [iTunes]

Dracon

7 | 2

4.64 ГБ

В этой теме нет новых непрочитанных сообщений. The Memoirs Of A Chambermaid / Мемуары Горничной (Eric Edwards, Arrow Productions) [1987 г., Classic, Feature, Threesomes, All Sex, Oral, Cunnilingus, Lesbian, MILF, DVDRip]

max77777

25 | 5

804.08 МБ

В этой теме нет новых непрочитанных сообщений. Diary Of A Teenage Girl 3 / Дневник Девочки-Подростка 3 (Mike Quasar, Zero Tolerance) [2017 г., 18+ Teens, All Sex, Gonzo, DVDRip]

salma3

8 | 2

851 МБ


Начать новую тему Ответить на тему  [ 1 сообщение ] 




Для Мосгорсуда, Роскомнадзора и рекламодателей:: mosgorsud-torrent[собачка]yandex.ru