Торрент файл
скачать торрент магнет ссылка Добавлен: 19 апр 2011, 13:36
Размер: 2.18 ГБ
Сидеров: 0
Личеров: 4
Автор

СообщениеДобавлено: 19 апр 2011, 13:36 

Не в сети
Супермодератор
Аватара пользователя
Дата регистрации:
22 май 2010, 11:03
Возраст: 32
Спасибо: 7690 / 13
Сообщения: 49871
Легендарный / Legendary



Перевод: Любительский (одноголосый)
Формат: HDRip-AVC, MKV, H.264, AC3
Страна: США
Режиссер: Мэл Дэмски
Жанр: Драма, спорт
Продолжительность: 01:27:00
Год выпуска: 2010

В ролях: Джон Сина, Патришия Кларксон, Девон Грайе, Paul Bealer, Джейкоб Бьянкини, Beau Brasso, Кимберли Линн Кэмпбелл, Кортни Дж. Кларк, Патрик Кокс, Шон Майкл Каннингэм

Описание: Умный, начитанный подросток попросился в школьную команду по борьбе, чтобы выиграть соревнование, ведь его отец был легендарным чемпионом 10 лет назад.

Рейтинг на IMDB: 5.4/10
Рейтинг на Кинопоиск.RU: 5.828
Рейтинг MPAA: RG-13

Видео: 1088x592 (1.838), 23.976 fps, MPEG4 AVC (x264) , 2469 kbps avg, 0.160 bit/pixel
Аудио #1: Русский: 48,0 КГц, MPEG Audio, 2 ch, 192 kbps avg [Любительский (одноголосый)]
Аудио #2:Английский: 48,0 КГц, AC-3, 2 ch, 256 kbps avg [Оригинал]
Общее
UniqueID/String: 174483293129037236332218972461088369037 (0x8344428904FA818ABB608093CCF3E98D)
Полное имя: C:\Documents and Settings\Admin.MICROSOF-68219C\Мои документы\Загрузки\Legendarniy.mkv
Формат: Matroska
Размер файла: 2,18 Гбайт
Продолжительность: 1 ч. 47 м.
Общий поток: 2915 Кбит/сек
Название фильма: Легендарный / Legendary (2010) HDRip-AVC от FireBit
Дата кодирования: UTC 2011-01-01 07:11:33
Программа кодирования: mkvmerge v2.3.0 ('Freak U') built on Sep8 2008 18:32:16
Библиотека кодирования: libebml v0.7.7 + libmatroska v0.8.1

Видео
Идентификатор: 1
Формат: AVC
Формат/Информация: Advanced Video Codec
Профиль формата:
Параметр CABAC формата: Да
Параметр ReFrames формата: 4 кадры
Идентификатор кодека: V_MPEG4/ISO/AVC
Продолжительность: 1 ч. 47 м.
Битрейт: 2469 Кбит/сек
Ширина: 1088 пикс.
Высота: 592 пикс.
Соотношение сторон: 16:9
Частота кадров: 23,976 кадр/сек
Цветовое пространство: YUV
Подвыборка цветности: 4:2:0
Битовая глубина: 8 бит
Тип развёртки: Прогрессивная
Бит/(Пиксели*Кадры): 0.160
Размер потока: 1,80 Гбайт (83%)
Заголовок: http://firebit.org
Библиотека кодирования: x264 core 108 r1790bm 8eaf8a6
Настройки программы: cabac=1 / ref=1 / deblock=1:0:0 / analyse=0x3:0x3 / me=dia / subme=1 / psy=1 / psy_rd=0.00:0.00 / mixed_ref=0 / me_range=16 / chroma_me=1 / trellis=0 / 8x8dct=1 / cqm=0 / deadzone=21,11 / fast_pskip=1 / chroma_qp_offset=0 / threads=1 / sliced_threads=0 / nr=0 / decimate=1 / interlaced=0 / constrained_intra=0 / bframes=3 / b_pyramid=2 / b_adapt=1 / b_bias=0 / direct=1 / weightb=1 / open_gop=0 / weightp=0 / keyint=250 / keyint_min=23 / scenecut=40 / intra_refresh=0 / rc=2pass / mbtree=0 / bitrate=2469 / ratetol=1.0 / qcomp=0.60 / qpmin=10 / qpmax=51 / qpstep=4 / cplxblur=20.0 / qblur=0.5 / ip_ratio=1.40 / pb_ratio=1.30 / aq=1:1.00
Язык: English

Аудио #1
Идентификатор: 2
Формат: MPEG Audio
Версия формата: Version 1
Профиль формата: Layer 3
Режим: Joint stereo
Идентификатор кодека: A_MPEG/L3
Идентификатор кодека/Подсказка: MP3
Продолжительность: 1 ч. 47 м.
Вид битрейта: Постоянный
Битрейт: 192 Кбит/сек
Канал(ы): 2 канала(ов)
Частота: 48,0 КГц
Метод сжатия: С потерями
Размер потока: 147 Мбайт (7%)
Заголовок: http://firebit.org
Язык: Russian

Аудио #2
Идентификатор: 3
Формат: AC-3
Формат/Информация: Audio Coding 3
Расширение режима: CM (complete main)
Идентификатор кодека: A_AC3
Продолжительность: 1 ч. 47 м.
Вид битрейта: Постоянный
Битрейт: 256 Кбит/сек
Канал(ы): 2 канала(ов)
Расположение каналов: Front: L R
Частота: 48,0 КГц
Битовая глубина: 16 бит
Метод сжатия: С потерями
Размер потока: 196 Мбайт (9%)
Заголовок: http://firebit.org
Язык: English

Текст #1
Идентификатор: 4
Формат: UTF-8
Идентификатор кодека: S_TEXT/UTF8
Идентификатор кодека/Информация: UTF-8 Plain Text
Заголовок: http://firebit.org
Язык: English

Текст #2
Идентификатор: 5
Формат: UTF-8
Идентификатор кодека: S_TEXT/UTF8
Идентификатор кодека/Информация: UTF-8 Plain Text
Заголовок: http://firebit.org
Язык: English










реклама партнёра


Вернуться к началу
 Профиль Отправить личное сообщение  
 
   Похожие торренты   Автор   Торрент   Размер 
В этой теме нет новых непрочитанных сообщений. Вольтрон: Легендарный защитник / Voltron: Legendary Defender [02х01-02 из 13] (2017) WEBRip 720p | LE-Production

marya111

74 | 14

1.19 ГБ

В этой теме нет новых непрочитанных сообщений. Вольтрон: Легендарный защитник / Voltron: Legendary Defender [01х01-11 из 11] (фантастика, приключения, 2016) WEBRip 720p | LE-Production

marya111

40 | 9

4.93 ГБ

В этой теме нет новых непрочитанных сообщений. Феномен / The Phenom [драма, спорт, 2016] HDRip, Mvo

salma3

374 | 60

1.37 ГБ

В этой теме нет новых непрочитанных сообщений. Вудлон / Woodlawn [Драма, спорт, 2015] HDRip, dvo

Dracon

252 | 14

1.37 ГБ

В этой теме нет новых непрочитанных сообщений. Фанат / The Fan [боевик, триллер, драма, спорт, 1996] HDRip, Mvo

salma3

17 | 5

1.45 ГБ

В этой теме нет новых непрочитанных сообщений. Три ошибки моей жизни / Kai po che! [Драма, спорт, 2013] HDRip, Mvo

salma3

32 | 2

1.37 ГБ

В этой теме нет новых непрочитанных сообщений. Дангал / Dangal [драма, биография, спорт, 2016] HDRip, Mvo

salma3

38 | 12

1.47 ГБ


Начать новую тему Ответить на тему  [ 1 сообщение ] 




Для Мосгорсуда, Роскомнадзора и рекламодателей:: mosgorsud-torrent[собачка]yandex.ru